<?xml version="1.0" standalone="no"?>
<!DOCTYPE svg PUBLIC "-//W3C//DTD SVG 1.1//EN" "http://www.w3.org/Graphics/SVG/1.1/DTD/svg11.dtd" >
<svg>
<metadata>
Created by FontForge 20090914 at Mon Aug  7 09:07:15 2017
 By www-data
Copyright (c) M. G. Abbas Malik, 2006. All rights reserved.
</metadata>
<defs>
<font id="FajerNooriNastalique" horiz-adv-x="0" >
  <font-face 
    font-family="Fajer Noori Nastalique"
    font-weight="400"
    font-stretch="normal"
    units-per-em="1000"
    panose-1="2 0 5 3 0 0 0 2 0 3"
    ascent="800"
    descent="-200"
    x-height="447"
    cap-height="662"
    bbox="-139 -791.002 3903 1658"
    underline-thickness="50"
    underline-position="-50"
    unicode-range="U+0006-U+FEFB"
  />
<missing-glyph horiz-adv-x="250" 
 />
    <glyph glyph-name="six.003" unicode="&#x627;" horiz-adv-x="31" arabic-form="final" 
d="M31 73c-5.33301 17.333 -9.33301 36.667 -12 58s-3.66699 68.666 -3 141.999l2 180c-1.33301 6.66699 -2 13.334 -2 20.001c0 14 3.33301 30.333 10 49l18 47c0.666992 6.66699 4.33398 15.667 11.001 27c4 0 7.66699 -2.33301 11 -7
c-12.667 -110.667 -15.334 -224.667 -8.00098 -342c2 -38.667 9 -68.667 21 -90z" />
    <glyph glyph-name="guilsinglright.001" unicode="&#x628;" horiz-adv-x="695" arabic-form="final" 
d="M678 140c-26 -39.333 -63.6689 -68.998 -113.002 -88.998c-22 -8.66699 -68 -21 -138 -37c-6.66699 -0.666992 -16.334 -2 -29.001 -4c-62 -8 -118 -12 -168 -12c-60.667 0 -113.667 6 -159 18c-29.333 8 -46.666 26 -51.999 54c-2.66699 14.667 -4 30 -4 46
c0 28.667 5 66 15 112c2 4.66699 4.66699 7.33398 8 8.00098c4.66699 2 8.33398 -0.666992 11.001 -8v-46c0 -18 6.66699 -31 20 -39c34.667 -14.667 78 -23.667 130 -27c21.333 -2 68 -2.66699 140 -2c127.333 0.666992 227 17 299 49
c25.333 11.333 46.333 34.666 63 69.999c6.66699 4 11.334 5.66699 14.001 5c1.33301 -0.666992 2 -5.33398 2 -14.001c-2.66699 -12 -10 -30.333 -22 -55c-1.33301 -2.66699 -7 -12.334 -17 -29.001zM320.998 -74.998l7 -0.998047c8.66699 -4 20.167 -11.667 34.5 -23
l31.5 -25c4 -4 5.66699 -6.66699 5 -8c-12 -14.667 -30.667 -36.334 -56 -65.001c-6 -4 -10.667 -4.33301 -14 -1c-25.333 13.333 -47.333 29.666 -66 48.999c4 8.66699 13 21.167 27 37.5z" />
    <glyph glyph-name="guilsinglright.010" unicode="&#x62a;" horiz-adv-x="695" arabic-form="final" 
d="M678 140c-26 -39.333 -63.6689 -68.998 -113.002 -88.998c-22 -8.66699 -68 -21 -138 -37c-6.66699 -0.666992 -16.334 -2 -29.001 -4c-62 -8 -118 -12 -168 -12c-60.667 0 -113.667 6 -159 18c-29.333 8 -46.666 26 -51.999 54c-2.66699 14.667 -4 30 -4 46
c0 28.667 5 66 15 112c2 4.66699 4.66699 7.33398 8 8.00098c4.66699 2 8.33398 -0.666992 11.001 -8v-46c0 -18 6.66699 -31 20 -39c34.667 -14.667 78 -23.667 130 -27c21.333 -2 68 -2.66699 140 -2c127.333 0.666992 227 17 299 49
c25.333 11.333 46.333 34.666 63 69.999c6.66699 4 11.334 5.66699 14.001 5c1.33301 -0.666992 2 -5.33398 2 -14.001c-2.66699 -12 -10 -30.333 -22 -55c-1.33301 -2.66699 -7 -12.334 -17 -29.001zM346.998 296.002l-2.99902 0.000976562l-26 -32
c-14.667 -16.667 -25 -27.334 -31 -32.001c-10.667 5.33301 -23 13.666 -37 24.999l-36 31c-3.33301 5.33301 -3.33301 9.66602 0 12.999c5.33301 8.66699 23.333 31.334 54 68.001c5.33301 1.33301 11.333 -1 18 -7s11 -9.33301 13 -10l32 -24
c7.33301 -6 15.666 -9 24.999 -9c11.333 18 26.333 37.333 45 58c16.667 -12 42.667 -28.667 78 -50c2 -4.66699 1.33301 -8.66699 -2 -12c-16 -25.333 -33.333 -49.666 -52 -72.999c-23.333 8.66699 -49.333 26.667 -78 54z" />
    <glyph glyph-name="guilsinglright.011" unicode="&#x62b;" horiz-adv-x="695" arabic-form="final" 
d="M678 140c-26 -39.333 -63.6689 -68.998 -113.002 -88.998c-22 -8.66699 -68 -21 -138 -37c-6.66699 -0.666992 -16.334 -2 -29.001 -4c-62 -8 -118 -12 -168 -12c-60.667 0 -113.667 6 -159 18c-29.333 8 -46.666 26 -51.999 54c-2.66699 14.667 -4 30 -4 46
c0 28.667 5 66 15 112c2 4.66699 4.66699 7.33398 8 8.00098c4.66699 2 8.33398 -0.666992 11.001 -8v-46c0 -18 6.66699 -31 20 -39c34.667 -14.667 78 -23.667 130 -27c21.333 -2 68 -2.66699 140 -2c127.333 0.666992 227 17 299 49
c25.333 11.333 46.333 34.666 63 69.999c6.66699 4 11.334 5.66699 14.001 5c1.33301 -0.666992 2 -5.33398 2 -14.001c-2.66699 -12 -10 -30.333 -22 -55c-1.33301 -2.66699 -7 -12.334 -17 -29.001zM350.998 259.002l-2.99902 0.000976562l-26 -32
c-14.667 -16.667 -25 -27.334 -31 -32.001c-10.667 5.33301 -23 13.666 -37 24.999l-36 31c-3.33301 5.33301 -3.33301 9.66602 0 12.999c5.33301 8.66699 23.333 31.334 54 68.001c5.33301 1.33301 11.333 -1 18 -7s11 -9.33301 13 -10l32 -24
c7.33301 -6 15.666 -9 24.999 -9c11.333 18 26.333 37.333 45 58c16.667 -12 42.667 -28.667 78 -50c2 -4.66699 1.33301 -8.66699 -2 -12c-16 -25.333 -33.333 -49.666 -52 -72.999c-23.333 8.66699 -49.333 26.667 -78 54zM328.999 463.003l7 -0.998047
c8.66699 -4 20.167 -11.667 34.5 -23l31.5 -25c4 -4 5.66699 -6.66699 5 -8c-12 -14.667 -30.667 -36.334 -56 -65.001c-6 -4 -10.667 -4.33301 -14 -1c-25.333 13.333 -47.333 29.666 -66 48.999c4 8.66699 13 21.167 27 37.5z" />
    <glyph glyph-name="agrave.001" unicode="&#x62c;" horiz-adv-x="25" arabic-form="final" 
d="M76 569c7.33301 2.66699 18.6631 5.66211 33.9961 8.99512c25.333 5.33301 68.666 8 129.999 8c13.333 0 20.666 -4 21.999 -12c-3.33301 -35.333 -22.666 -73.333 -57.999 -114c-52.667 -59.333 -81.334 -92.666 -86.001 -99.999
c-39.333 -63.333 -59 -126.666 -59 -189.999c0 -44.667 11.333 -84 34 -118c24 -36 63.667 -54 119 -54c54 0 104.333 16.333 151 49c44.667 30.667 79.667 71.334 105 122.001c14 28 27.333 61.333 40 100c4.66699 4.66699 8.66699 5.33398 12 2.00098
c2 -1.33301 1.33301 -12.333 -2 -33c-29.333 -132.667 -82.666 -232.334 -159.999 -299.001c-47.333 -41.333 -101.666 -62 -162.999 -62c-34 0 -65 7.66699 -93 23c-58 40.667 -87 106.334 -87 197.001c0 38 5.33301 78.667 16 122c24.667 99.333 81.334 199 170.001 299
c0 2.66699 -1.33301 4.33398 -4 5.00098c-14 2 -28.333 3 -43 3c-41.333 0 -83.333 -8.33301 -126 -25c-5.33301 0 -8.66602 1.66699 -9.99902 5c0.666992 5.33301 2.33398 12 5.00098 20c0.666992 2 1.33398 3.66699 2.00098 5zM235.997 239.995l7 -0.998047
c8.66699 -4 20.167 -11.667 34.5 -23l31.5 -25c4 -4 5.66699 -6.66699 5 -8c-12 -14.667 -30.667 -36.334 -56 -65.001c-6 -4 -10.667 -4.33301 -14 -1c-25.333 13.333 -47.333 29.666 -66 48.999c4 8.66699 13 21.167 27 37.5z" />
    <glyph glyph-name="b.001.fina" unicode="&#x62d;" horiz-adv-x="25" arabic-form="final" 
d="M76 569c7.33301 2.66699 18.6631 5.66211 33.9961 8.99512c25.333 5.33301 68.666 8 129.999 8c13.333 0 20.666 -4 21.999 -12c-3.33301 -35.333 -22.666 -73.333 -57.999 -114c-52.667 -59.333 -81.334 -92.666 -86.001 -99.999
c-39.333 -63.333 -59 -126.666 -59 -189.999c0 -44.667 11.333 -84 34 -118c24 -36 63.667 -54 119 -54c54 0 104.333 16.333 151 49c44.667 30.667 79.667 71.334 105 122.001c14 28 27.333 61.333 40 100c4.66699 4.66699 8.66699 5.33398 12 2.00098
c2 -1.33301 1.33301 -12.333 -2 -33c-29.333 -132.667 -82.666 -232.334 -159.999 -299.001c-47.333 -41.333 -101.666 -62 -162.999 -62c-34 0 -65 7.66699 -93 23c-58 40.667 -87 106.334 -87 197.001c0 38 5.33301 78.667 16 122c24.667 99.333 81.334 199 170.001 299
c0 2.66699 -1.33301 4.33398 -4 5.00098c-14 2 -28.333 3 -43 3c-41.333 0 -83.333 -8.33301 -126 -25c-5.33301 0 -8.66602 1.66699 -9.99902 5c0.666992 5.33301 2.33398 12 5.00098 20c0.666992 2 1.33398 3.66699 2.00098 5z" />
    <glyph glyph-name="agrave.009" unicode="&#x62e;" horiz-adv-x="63" arabic-form="final" 
d="M114 569c7.33301 2.66699 18.6631 5.66211 33.9961 8.99512c25.333 5.33301 68.666 8 129.999 8c13.333 0 20.666 -4 21.999 -12c-3.33301 -35.333 -22.666 -73.333 -57.999 -114c-52.667 -59.333 -81.334 -92.666 -86.001 -99.999
c-39.333 -63.333 -59 -126.666 -59 -189.999c0 -44.667 11.333 -84 34 -118c24 -36 63.667 -54 119 -54c54 0 104.333 16.333 151 49c44.667 30.667 79.667 71.334 105 122.001c14 28 27.333 61.333 40 100c4.66699 4.66699 8.66699 5.33398 12 2.00098
c2 -1.33301 1.33301 -12.333 -2 -33c-29.333 -132.667 -82.666 -232.334 -159.999 -299.001c-47.333 -41.333 -101.666 -62 -162.999 -62c-34 0 -65 7.66699 -93 23c-58 40.667 -87 106.334 -87 197.001c0 38 5.33301 78.667 16 122c24.667 99.333 81.334 199 170.001 299
c0 2.66699 -1.33301 4.33398 -4 5.00098c-14 2 -28.333 3 -43 3c-41.333 0 -83.333 -8.33301 -126 -25c-5.33301 0 -8.66602 1.66699 -9.99902 5c0.666992 5.33301 2.33398 12 5.00098 20c0.666992 2 1.33398 3.66699 2.00098 5zM54.9971 728.995l7 -0.999023
c8.66699 -4 20.167 -11.667 34.5 -23l31.5 -25c4.66699 -4 6.66699 -7 6 -9l-57 -64c-6 -4 -10.667 -4.33301 -14 -1c-25.333 13.333 -47.333 29.666 -66 48.999c4 8.66699 13 21.167 27 37.5z" />
    <glyph glyph-name="adieresis.011" unicode="&#x62f;" horiz-adv-x="257" arabic-form="final" 
d="M257 166c0 7.33301 0.331055 14.667 0.998047 22h-2l-24 -65c-9.33301 -25.333 -19.333 -46 -30 -62c-6 -8.66699 -18.333 -16 -37 -22c-35.333 -8 -87.666 -21 -156.999 -39c-5.33301 -0 -7 4.33301 -5 13c14 12.667 33.333 25.667 58 39
c64 33.333 116 78.666 156 135.999c13.333 24 26.333 54.667 39 92l33 96c2 6.66699 5 11 9 13c7.33301 0.666992 12 -1.66602 14 -6.99902c0.666992 -8.66699 -0.666016 -19.334 -3.99902 -32.001c-5.33301 -19.333 -8 -29.333 -8 -30
c-4.66699 -25.333 -7 -45.666 -7 -60.999c0 -22 4 -40 12 -54z" />
    <glyph glyph-name="oslash" unicode="&#x630;" horiz-adv-x="257" arabic-form="final" 
d="M257 166c0 7.33301 0.331055 14.667 0.998047 22h-2l-24 -65c-9.33301 -25.333 -19.333 -46 -30 -62c-6 -8.66699 -18.333 -16 -37 -22c-35.333 -8 -87.666 -21 -156.999 -39c-5.33301 -0 -7 4.33301 -5 13c14 12.667 33.333 25.667 58 39
c64 33.333 116 78.666 156 135.999c13.333 24 26.333 54.667 39 92l33 96c2 6.66699 5 11 9 13c7.33301 0.666992 12 -1.66602 14 -6.99902c0.666992 -8.66699 -0.666016 -19.334 -3.99902 -32.001c-5.33301 -19.333 -8 -29.333 -8 -30
c-4.66699 -25.333 -7 -45.666 -7 -60.999c0 -22 4 -40 12 -54zM234.998 536.001l10 0.00195312c8.66699 -4 20.167 -11.667 34.5 -23s25.5 -19 33.5 -23c2.66699 -5.33301 3.66699 -8.66602 3 -9.99902c-12 -14.667 -30.667 -36.334 -56 -65.001
c-6 -4 -10.667 -4.33301 -14 -1c-25.333 13.333 -47.333 29.666 -66 48.999c4 8.66699 13 21.167 27 37.5s23.333 28.166 28 35.499z" />
    <glyph glyph-name="u.008" unicode="&#x631;" horiz-adv-x="344" arabic-form="final" 
d="M344 117c-18.667 -6 -33.332 -14.334 -43.999 -25.001c-24 -25.333 -53 -71.666 -87 -138.999c-32 -63.333 -64.333 -108.333 -97 -135c-59.333 -48.667 -111 -80 -155 -94c-10.667 -2 -14.667 0 -12 6l3 5c124.667 88 207.167 174.5 247.5 259.5
s65.166 134.167 74.499 147.5c20.667 31.333 44 55 70 71v-96z" />
    <glyph glyph-name="u.010" unicode="&#x632;" horiz-adv-x="344" arabic-form="final" 
d="M344 117c-18.667 -6 -33.332 -14.334 -43.999 -25.001c-24 -25.333 -53 -71.666 -87 -138.999c-32 -63.333 -64.333 -108.333 -97 -135c-59.333 -48.667 -111 -80 -155 -94c-10.667 -2 -14.667 0 -12 6l3 5c124.667 88 207.167 174.5 247.5 259.5
s65.166 134.167 74.499 147.5c20.667 31.333 44 55 70 71v-96zM190.002 326.999l10 0.00195312c8.66699 -4 20.167 -11.667 34.5 -23s25.5 -19 33.5 -23c2.66699 -5.33301 3.66699 -8.66602 3 -9.99902c-12 -14.667 -30.667 -36.334 -56 -65.001
c-6 -4 -10.667 -4.33301 -14 -1c-25.333 13.333 -47.333 29.666 -66 48.999c4 8.66699 13 21.167 27 37.5s23.333 28.166 28 35.499z" />
    <glyph glyph-name="otilde.004" unicode="&#x633;" horiz-adv-x="708" arabic-form="final" 
d="M708 466c-6.66699 -2 -12.999 -3.00195 -18.999 -3.00195c-6.66699 0 -13.334 1 -20.001 3h-3c-9.33301 -23.333 -27.333 -38 -54 -44l-20 2c-16 -28.667 -38.333 -43.667 -67 -45c-1.33301 -1.33301 -2.33301 -10.333 -3 -27c-6 -132.667 -48.333 -250.667 -127 -354
c-70.667 -88 -152 -128.333 -244 -121c-28 2 -53.667 13.5 -77 34.5s-39 45.333 -47 73s-12 57.167 -12 88.5c0 56.667 17.667 132.667 53 228c4 10.667 11.667 24.667 23 42c8 6.66699 11 4 9 -8l-28 -93c-10 -37.333 -15 -69.666 -15 -96.999
c0 -37.333 9.33301 -70.333 28 -99c26 -31.333 64.667 -47 116 -47c24 0 49.333 3.66699 76 11c54.667 14.667 101.667 47.667 141 99c38 48.667 60.333 102 67 160c4.66699 40 4 86 -2 138c2 10.667 4.16699 21.667 6.5 33s6.5 21 12.5 29
c4.66699 0.666992 8.33398 -2.66602 11.001 -9.99902c0 -9.33301 3.33301 -14.333 10 -15c24 -2.66699 43.333 3.33301 58 18c5.33301 5.33301 10 12.166 14 20.499l11 23.5c3.33301 3.33301 6.33301 4.33301 9 3c3.33301 -5.33301 2.66602 -15 -2.00098 -29
c4.66699 -3.33301 14.667 -2.33301 30 3c15.333 12 28.333 34 39 66c1.33301 4.66699 4.66602 6.33398 9.99902 5.00098c3.33301 -4.66699 4.33301 -10 3 -16s-2.66602 -11.667 -3.99902 -17c5.33301 -2.66699 11 -4 17 -4v-51z" />
    <glyph glyph-name="otilde.005" unicode="&#x634;" horiz-adv-x="708" arabic-form="final" 
d="M708 466c-6.66699 -2 -12.999 -3.00195 -18.999 -3.00195c-6.66699 0 -13.334 1 -20.001 3h-3c-9.33301 -23.333 -27.333 -38 -54 -44l-20 2c-16 -28.667 -38.333 -43.667 -67 -45c-1.33301 -1.33301 -2.33301 -10.333 -3 -27c-6 -132.667 -48.333 -250.667 -127 -354
c-70.667 -88 -152 -128.333 -244 -121c-28 2 -53.667 13.5 -77 34.5s-39 45.333 -47 73s-12 57.167 -12 88.5c0 56.667 17.667 132.667 53 228c4 10.667 11.667 24.667 23 42c8 6.66699 11 4 9 -8l-28 -93c-10 -37.333 -15 -69.666 -15 -96.999
c0 -37.333 9.33301 -70.333 28 -99c26 -31.333 64.667 -47 116 -47c24 0 49.333 3.66699 76 11c54.667 14.667 101.667 47.667 141 99c38 48.667 60.333 102 67 160c4.66699 40 4 86 -2 138c2 10.667 4.16699 21.667 6.5 33s6.5 21 12.5 29
c4.66699 0.666992 8.33398 -2.66602 11.001 -9.99902c0 -9.33301 3.33301 -14.333 10 -15c24 -2.66699 43.333 3.33301 58 18c5.33301 5.33301 10 12.166 14 20.499l11 23.5c3.33301 3.33301 6.33301 4.33301 9 3c3.33301 -5.33301 2.66602 -15 -2.00098 -29
c4.66699 -3.33301 14.667 -2.33301 30 3c15.333 12 28.333 34 39 66c1.33301 4.66699 4.66602 6.33398 9.99902 5.00098c3.33301 -4.66699 4.33301 -10 3 -16s-2.66602 -11.667 -3.99902 -17c5.33301 -2.66699 11 -4 17 -4v-51zM527.001 583.998l-2.99902 0.000976562
l-26 -32c-14.667 -16.667 -25 -27.334 -31 -32.001c-10.667 5.33301 -23 13.666 -37 24.999l-36 31c-3.33301 5.33301 -3.33301 9.66602 0 12.999c5.33301 8.66699 23.333 31.334 54 68.001c5.33301 1.33301 11.333 -1 18 -7s11 -9.33301 13 -10l32 -24
c7.33301 -6 15.666 -9 24.999 -9c11.333 18 26.333 37.333 45 58c16.667 -12 42.667 -28.667 78 -50c2 -4.66699 1.33301 -8.66699 -2 -12c-16 -25.333 -33.333 -49.666 -52 -72.999c-23.333 8.66699 -49.333 26.667 -78 54zM505.002 787.999l7 -0.998047
c8.66699 -4 20.167 -11.667 34.5 -23l31.5 -25c4 -4 5.66699 -6.66699 5 -8c-12 -14.667 -30.667 -36.334 -56 -65.001c-6 -4 -10.667 -4.33301 -14 -1c-25.333 13.333 -47.333 29.666 -66 48.999c4 8.66699 13 21.167 27 37.5z" />
    <glyph glyph-name="ugrave.004" unicode="&#x635;" horiz-adv-x="798" arabic-form="final" 
d="M798 393c-16 -9.33301 -35.999 -14.3311 -59.999 -14.998c-16 0.666992 -32.333 3.33398 -49 8.00098l-29 8c-33.333 -20 -77.333 -28.667 -132 -26l-1 -6c-11.333 -150.667 -65 -282 -161 -394c-62.667 -60.667 -127 -91 -193 -91c-32 0 -60.667 8.66699 -86 26
s-43.666 41 -54.999 71s-17 63 -17 99c0 53.333 14 121 42 203c5.33301 14.667 14.666 36 27.999 64c4 6.66699 8.33301 7.66699 13 3c2.66699 -5.33301 2 -14 -2 -26c-26 -76.667 -39 -134 -39 -172c0 -31.333 6.33301 -59.333 19 -84
c23.333 -45.333 69.666 -66 138.999 -62c91.333 4.66699 165.333 50 222 136c36.667 55.333 55 130 55 224c0 26 -1.33301 53.667 -4 83c0.666992 5.33301 5.33398 24.666 14.001 57.999c1.33301 1.33301 2.66602 2 3.99902 2c2 0 4.5 -1.5 7.5 -4.5s5.5 -4.83301 7.5 -5.5
c27.333 -4 41.333 -6 42 -6c13.333 11.333 37.666 42.666 72.999 93.999c27.333 40 56.666 65 87.999 75c32.667 4 55.334 -4.33301 68.001 -25c3.33301 -10 5 -20.333 5 -31c0 -24.667 -12 -59 -36 -103c-21.333 -32 -38.666 -53.667 -51.999 -65
c7.33301 -0.666992 16 -0.666992 26 0c22 1.33301 43 5.66602 63 12.999v-51zM739.001 599.002c-28.667 3.33301 -55.334 -9.33301 -80.001 -38l-59 -74v-3l31 2c60.667 4 103.334 27.667 128.001 71c1.33301 3.33301 2 7.33301 2 12c0 6.66699 -2.66699 14 -8 22
c-4 4 -8.66699 6.66699 -14 8z" />
    <glyph glyph-name="ugrave.005" unicode="&#x636;" horiz-adv-x="798" arabic-form="final" 
d="M798 393c-16 -9.33301 -35.999 -14.3311 -59.999 -14.998c-16 0.666992 -32.333 3.33398 -49 8.00098l-29 8c-33.333 -20 -77.333 -28.667 -132 -26l-1 -6c-11.333 -150.667 -65 -282 -161 -394c-62.667 -60.667 -127 -91 -193 -91c-32 0 -60.667 8.66699 -86 26
s-43.666 41 -54.999 71s-17 63 -17 99c0 53.333 14 121 42 203c5.33301 14.667 14.666 36 27.999 64c4 6.66699 8.33301 7.66699 13 3c2.66699 -5.33301 2 -14 -2 -26c-26 -76.667 -39 -134 -39 -172c0 -31.333 6.33301 -59.333 19 -84
c23.333 -45.333 69.666 -66 138.999 -62c91.333 4.66699 165.333 50 222 136c36.667 55.333 55 130 55 224c0 26 -1.33301 53.667 -4 83c0.666992 5.33301 5.33398 24.666 14.001 57.999c1.33301 1.33301 2.66602 2 3.99902 2c2 0 4.5 -1.5 7.5 -4.5s5.5 -4.83301 7.5 -5.5
c27.333 -4 41.333 -6 42 -6c13.333 11.333 37.666 42.666 72.999 93.999c27.333 40 56.666 65 87.999 75c32.667 4 55.334 -4.33301 68.001 -25c3.33301 -10 5 -20.333 5 -31c0 -24.667 -12 -59 -36 -103c-21.333 -32 -38.666 -53.667 -51.999 -65
c7.33301 -0.666992 16 -0.666992 26 0c22 1.33301 43 5.66602 63 12.999v-51zM739.001 599.002c-28.667 3.33301 -55.334 -9.33301 -80.001 -38l-59 -74v-3l31 2c60.667 4 103.334 27.667 128.001 71c1.33301 3.33301 2 7.33301 2 12c0 6.66699 -2.66699 14 -8 22
c-4 4 -8.66699 6.66699 -14 8zM559.001 764.003l7 -0.998047c8.66699 -4 20.167 -11.667 34.5 -23l31.5 -25c4 -4 5.66699 -6.66699 5 -8c-12 -14.667 -30.667 -36.334 -56 -65.001c-6 -4 -10.667 -4.33301 -14 -1c-25.333 13.333 -47.333 29.666 -66 48.999
c4 8.66699 13 21.167 27 37.5z" />
    <glyph glyph-name="o.025" unicode="&#x637;" horiz-adv-x="382" arabic-form="final" 
d="M382 37c-37.333 -11.333 -83.3271 -17.0029 -137.994 -17.0029c-12 0 -24 0.333008 -36 1c-8 -0.666992 -41.333 -2.66699 -100 -6c-41.333 -2.66699 -73.666 -7.66699 -96.999 -15c-4.66699 0 -8 2.33301 -10 7c-0.666992 6.66699 3.66602 12.334 12.999 17.001l34 12
c27.333 24.667 51.666 55.334 72.999 92.001c12 40.667 17.667 93.334 17 158.001c-1.33301 90 -1.33301 143 0 159c14 38.667 30 79 48 121c1.33301 2.66699 4 4.66699 8 6c5.33301 0 8 -3 8 -9c-0.666992 -5.33301 -1.33398 -9.66602 -2.00098 -12.999
s-1.33398 -6.33301 -2.00098 -9c-4.66699 -28.667 -7.33398 -88.334 -8.00098 -179.001c-0.666992 -76 -8.66699 -135 -24 -177c50 46.667 91 70 123 70c7.33301 0.666992 14.666 0 21.999 -2c24 -6 38.667 -20 44 -42c4 -25.333 -4.66699 -52 -26 -80l-56 -70
c41.333 0.666992 77.666 10.667 108.999 30v-54zM101.006 48.9971l104.999 26.001c60 21.333 90.667 50.333 92 87c-1.33301 6.66699 -5.66602 13.667 -12.999 21c-6.66699 5.33301 -17 8 -31 8c-30 -6.66699 -59 -25.334 -87 -56.001z" />
    <glyph glyph-name="o.026" unicode="&#x638;" horiz-adv-x="382" arabic-form="final" 
d="M382 37c-37.333 -11.333 -83.3271 -17.0029 -137.994 -17.0029c-12 0 -24 0.333008 -36 1c-8 -0.666992 -41.333 -2.66699 -100 -6c-41.333 -2.66699 -73.666 -7.66699 -96.999 -15c-4.66699 0 -8 2.33301 -10 7c-0.666992 6.66699 3.66602 12.334 12.999 17.001l34 12
c27.333 24.667 51.666 55.334 72.999 92.001c12 40.667 17.667 93.334 17 158.001c-1.33301 90 -1.33301 143 0 159c14 38.667 30 79 48 121c1.33301 2.66699 4 4.66699 8 6c5.33301 0 8 -3 8 -9c-0.666992 -5.33301 -1.33398 -9.66602 -2.00098 -12.999
s-1.33398 -6.33301 -2.00098 -9c-4.66699 -28.667 -7.33398 -88.334 -8.00098 -179.001c-0.666992 -76 -8.66699 -135 -24 -177c50 46.667 91 70 123 70c7.33301 0.666992 14.666 0 21.999 -2c24 -6 38.667 -20 44 -42c4 -25.333 -4.66699 -52 -26 -80l-56 -70
c41.333 0.666992 77.666 10.667 108.999 30v-54zM101.006 48.9971l104.999 26.001c60 21.333 90.667 50.333 92 87c-1.33301 6.66699 -5.66602 13.667 -12.999 21c-6.66699 5.33301 -17 8 -31 8c-30 -6.66699 -59 -25.334 -87 -56.001zM272.005 471.998l7 -0.998047
c8.66699 -4 20.167 -11.667 34.5 -23l31.5 -25c4 -4 5.66699 -6.66699 5 -8c-12 -14.667 -30.667 -36.334 -56 -65.001c-6 -4 -10.667 -4.33301 -14 -1c-25.333 13.333 -47.333 29.666 -66 48.999c4 8.66699 13 21.167 27 37.5z" />
    <glyph glyph-name="uacute.014" unicode="&#x639;" horiz-adv-x="363" arabic-form="final" 
d="M363 425c-16 -9.33301 -35.9971 -14.3311 -59.9971 -14.998c-38 2.66699 -66 16 -84 40h-3c-98.667 -78.667 -148 -172 -148 -280c0 -17.333 1.33301 -34.666 4 -51.999c4 -24 14.333 -46.333 31 -67s36.667 -34.334 60 -41.001c21.333 -6 43 -9 65 -9
c86 0 160 40 222 120c22 28 45.333 72 70 132c3.33301 4.66699 6.66602 6.33398 9.99902 5.00098c4 -0.666992 5.33301 -6.33398 4 -17.001c-22.667 -82.667 -58.667 -155.334 -108 -218.001c-57.333 -72 -123.333 -117.333 -198 -136c-15.333 -4 -30.333 -6 -45 -6
c-50 0 -89.333 17.667 -118 53c-33.333 40.667 -50 92.334 -50 155.001c0 74 21 152.333 63 235c37.333 73.333 77.666 129.666 120.999 168.999c-4.66699 26 -28.667 44.667 -72 56c-2 0.666992 -8.66699 0.333984 -20 -0.999023c-8.66699 -1.33301 -14.667 0.666992 -18 6
c-1.33301 9.33301 8.33398 21.666 29.001 36.999c39.333 23.333 81 35.333 125 36c7.33301 0 14.666 -0.666992 21.999 -2c25.333 -6 43 -16.667 53 -32c2.66699 -5.33301 3.66699 -11.333 3 -18c0 -16.667 -13.333 -38.334 -40 -65.001l-26 -26
c14 -15.333 39.667 -21 77 -17c11.333 2.66699 21.666 5.66699 30.999 9v-51z" />
    <glyph glyph-name="uacute.016" unicode="&#x63a;" horiz-adv-x="363" arabic-form="final" 
d="M166 787l7 -0.998047c8.66699 -4 20.167 -11.667 34.5 -23l31.5 -25c4 -4 5.66699 -6.66699 5 -8c-12 -14.667 -30.667 -36.334 -56 -65.001c-6 -4 -10.667 -4.33301 -14 -1c-25.333 13.333 -47.333 29.666 -66 48.999c4 8.66699 13 21.167 27 37.5zM363 425.002
c-16 -9.33301 -35.9971 -14.3311 -59.9971 -14.998c-38 2.66699 -66 16 -84 40h-3c-98.667 -78.667 -148 -172 -148 -280c0 -17.333 1.33301 -34.666 4 -51.999c4 -24 14.333 -46.333 31 -67s36.667 -34.334 60 -41.001c21.333 -6 43 -9 65 -9c86 0 160 40 222 120
c22 28 45.333 72 70 132c3.33301 4.66699 6.66602 6.33398 9.99902 5.00098c4 -0.666992 5.33301 -6.33398 4 -17.001c-22.667 -82.667 -58.667 -155.334 -108 -218.001c-57.333 -72 -123.333 -117.333 -198 -136c-15.333 -4 -30.333 -6 -45 -6
c-50 0 -89.333 17.667 -118 53c-33.333 40.667 -50 92.334 -50 155.001c0 74 21 152.333 63 235c37.333 73.333 77.666 129.666 120.999 168.999c-4.66699 26 -28.667 44.667 -72 56c-2 0.666992 -8.66699 0.333984 -20 -0.999023c-8.66699 -1.33301 -14.667 0.666992 -18 6
c-1.33301 9.33301 8.33398 21.666 29.001 36.999c39.333 23.333 81 35.333 125 36c7.33301 0 14.666 -0.666992 21.999 -2c25.333 -6 43 -16.667 53 -32c2.66699 -5.33301 3.66699 -11.333 3 -18c0 -16.667 -13.333 -38.334 -40 -65.001l-26 -26
c14 -15.333 39.667 -21 77 -17c11.333 2.66699 21.666 5.66699 30.999 9v-51z" />
    <glyph glyph-name="p.009" unicode="&#x641;" horiz-adv-x="791" arabic-form="final" 
d="M791 113c-22.667 -12 -46.668 -19 -72.001 -21c-19.333 -1.33301 -40 3.66699 -62 15h-5c-33.333 -28 -75.666 -49.333 -126.999 -64c-17.333 -5.33301 -64.333 -15 -141 -29c-46 -8.66699 -95.667 -13 -149 -13c-46 0 -90.333 3.33301 -133 10
c-44 11.333 -70 28.333 -78 51c-6 17.333 -9 38 -9 62c0 28 4.66699 64.333 14 109c1.33301 4 4.33301 7 9 9c5.33301 1.33301 9.66602 -1 12.999 -7c0 -16 0.333008 -32 1 -48c0.666992 -19.333 8 -32.333 22 -39c34.667 -13.333 77.334 -21.666 128.001 -24.999
c25.333 -2 70 -2.66699 134 -2c112.667 1.33301 204 15 274 41l2 1c-5.33301 16 -8 32.667 -8 50c0 50 19.667 92.667 59 128c16 14.667 32.667 22 50 22c6.66699 0 13.334 -1 20.001 -3c16.667 -5.33301 29.667 -19.333 39 -42c2 -8.66699 3 -17 3 -25
c0 -38.667 -19.667 -83 -59 -133c7.33301 -2.66699 22.666 -2.33398 45.999 0.999023c9.33301 2 19 5 29 9v-57zM705.999 295c-4 1.33301 -7.99902 2.00098 -11.999 2.00098c-16 0 -31 -7.33301 -45 -22c-7.33301 -10 -11 -21.333 -11 -34
c-1.33301 -18 3.33398 -34.667 14.001 -50c4.66699 -4.66699 10 -8.33398 16 -11.001c19.333 7.33301 36.666 20.333 51.999 39c8 12 12 25 12 39c-0.666992 8 -2.33398 15.167 -5.00098 21.5s-9.66699 11.5 -21 15.5zM606 510.001l10 0.00195312
c8.66699 -4 20.167 -11.667 34.5 -23s25.5 -19 33.5 -23c2.66699 -5.33301 3.66699 -8.66602 3 -9.99902c-12 -14.667 -30.667 -36.334 -56 -65.001c-6 -4 -10.667 -4.33301 -14 -1c-25.333 13.333 -47.333 29.666 -66 48.999c4 8.66699 13 21.167 27 37.5
s23.333 28.166 28 35.499z" />
    <glyph glyph-name="Thorn.009" unicode="&#x642;" horiz-adv-x="580" arabic-form="final" 
d="M580 374c-11.333 -11.333 -24.3291 -22.668 -38.9961 -34.001c-10.667 -111.333 -42.334 -209 -95.001 -293c-34 -54 -74.667 -96.667 -122 -128c-52.667 -34 -107.667 -49.333 -165 -46c-25.333 1.33301 -49 10.166 -71 26.499s-38.667 37.166 -50 62.499
c-15.333 35.333 -23 75 -23 119c0 61.333 18 142 54 242c2 5.33301 5.66699 10.333 11 15c10.667 8 14 2.33301 10 -17c-23.333 -76.667 -35 -134 -35 -172c0 -43.333 10.667 -79.333 32 -108c28.667 -30 68 -45 118 -45c66.667 0 128.667 26.667 186 80
c52 50 87.333 109 106 177c9.33301 33.333 9.33301 58.666 0 75.999c-3.33301 6 -8 9 -14 9c-2.66699 0 -7.33398 -1 -14.001 -3s-11.334 -3 -14.001 -3c-29.333 0.666992 -46.666 10.667 -51.999 30c-2 6.66699 -3 13.334 -3 20.001c0 10.667 3.16699 25.834 9.5 45.501
s10.166 35.834 11.499 48.501c5.33301 29.333 18.666 44 39.999 44c10 0 22 -5.33301 36 -16c26.667 -26 40.667 -65.667 42 -119l2 -3c8 4.66699 15 10.334 21 17.001zM345.004 605.998l-2.99805 -0.000976562c-8 -10 -15.667 -20.333 -23 -31c-10 -12 -20 -20.333 -30 -25
c-12.667 1.33301 -26.334 7.33301 -41.001 18l-36 30c-3.33301 5.33301 -3.33301 9.66602 0 12.999c5.33301 8.66699 23.333 31.334 54 68.001c5.33301 1.33301 11.333 -1 18 -7s11 -9.33301 13 -10c7.33301 -5.33301 18.666 -12 33.999 -20c6 -8.66699 13.667 -13 23 -13
c11.333 18 26.333 37.333 45 58c16.667 -12 42.667 -28.667 78 -50c2 -4.66699 1.33301 -8.66699 -2 -12c-16 -25.333 -33.333 -49.666 -52 -72.999c-23.333 8.66699 -49.333 26.667 -78 54z" />
    <glyph glyph-name="I.004" unicode="&#x644;" horiz-adv-x="542" arabic-form="final" 
d="M524 433l-1 0.000976562l-3 -3c8 -142 -29.667 -277 -113 -405c-64 -98.667 -141.333 -148 -232 -148c-14 0 -28 1.33301 -42 4c-26.667 5.33301 -50.667 20.666 -72 45.999c-20 23.333 -33 49 -39 77c-4.66699 24 -7 49 -7 75c0 69.333 18.667 150 56 242
c2 5.33301 6.33301 12.666 13 21.999c6 0 9.66699 -1.66699 11 -5l-1 -12c-25.333 -82.667 -38 -141.667 -38 -177c0 -24 3.33301 -47 10 -69s20.667 -40.5 42 -55.5s44 -23.167 68 -24.5c76 -5.33301 141 16.667 195 66c62 56.667 97.333 123.667 106 201
c3.33301 30.667 5 64.334 5 101.001c0 19.333 -1 53.333 -3 102c-1.33301 43.333 -1.66602 78 -0.999023 104v83c0.666992 33.333 3.33398 61 8.00098 83c9.33301 25.333 24.333 56.666 45 93.999c1.33301 1.33301 2.66602 2 3.99902 2
c3.33301 0 5.66602 -1.66699 6.99902 -5c-12.667 -71.333 -19 -145.666 -19 -222.999c0 -21.333 6.33301 -38.333 19 -51z" />
    <glyph glyph-name="germandbls.002" unicode="&#x645;" horiz-adv-x="306" arabic-form="final" 
d="M306 461c1.33301 -0.666992 14.332 -8 38.999 -22c16 -10 26.667 -20.667 32 -32c10 -20 8 -39 -6 -57c-30.667 -38.667 -60.667 -59.334 -90 -62.001c-47.333 -4.66699 -89.666 -17.667 -126.999 -39c-41.333 -24.667 -71 -57.667 -89 -99
c-5.33301 -18.667 -9 -40 -11 -64c-0.666992 -16.667 -1 -38.334 -1 -65.001v-68c0 -18 0.333008 -43.667 1 -77c1.33301 -37.333 2 -63.666 2 -78.999c0 -58 -5.66699 -105.667 -17 -143c-2.66699 -4.66699 -5.33398 -7 -8.00098 -7
c-1.33301 0 -3.66602 1.66699 -6.99902 5v135l-7 152c-1.33301 29.333 -2 54 -2 74c0 128.667 31.667 222.334 95 281.001c32 30 67.667 56 107 78c6.66699 8 24 37.667 52 89h37z" />
    <glyph glyph-name="aacute.003" unicode="&#x646;" horiz-adv-x="521" arabic-form="final" 
d="M521 382c2.66699 -125.333 -36.3311 -246.335 -116.998 -363.002c-65.333 -94 -141 -141 -227 -141c-16 0 -32 2 -48 6c-30 6.66699 -55.333 24.667 -76 54c-19.333 26.667 -31 56.334 -35 89.001c-2 15.333 -3 30.666 -3 45.999c0 62.667 17.333 139.334 52 230.001
c4.66699 12 11.667 26.333 21 43c6 6 9.66699 4 11 -6c-0.666992 -8.66699 -3.33398 -19.334 -8.00098 -32.001l-11 -32c-15.333 -60.667 -23 -105.667 -23 -135c0 -51.333 16 -89 48 -113c26 -19.333 58.333 -29 97 -29c49.333 0 95.166 13.5 137.499 40.5
s76.5 62.667 102.5 107s41 91.833 45 142.5c1.33301 14 1 32 -1 54c-2 26 -4.33301 49.333 -7 70c1.33301 10.667 6.66602 30.334 15.999 59.001c2 1.33301 5 1 9 -1c1.33301 -0.666992 2.33301 -1.66699 3 -3c0.666992 -3.33301 1.33398 -5.66602 2.00098 -6.99902
s1.66699 -2.83301 3 -4.5s3.33301 -3.16699 6 -4.5zM274.002 359.998l10 0.00195312c8.66699 -4 20.167 -11.667 34.5 -23s25.5 -19 33.5 -23c2.66699 -5.33301 3.66699 -8.66602 3 -9.99902c-12 -14.667 -30.667 -36.334 -56 -65.001c-6 -4 -10.667 -4.33301 -14 -1
c-25.333 13.333 -47.333 29.666 -66 48.999c4 8.66699 13 21.167 27 37.5s23.333 28.166 28 35.499z" />
    <glyph glyph-name="acircumflex.005" unicode="&#x648;" horiz-adv-x="252" arabic-form="final" 
d="M252 205c-2.66699 -2.66699 -5.33008 -4.66992 -7.99707 -6.00293c-8 -46 -24.333 -93.333 -49 -142c-9.33301 -18.667 -33.333 -30.334 -72 -35.001c-24.667 -4.66699 -62.334 -11 -113.001 -19c-4.66699 0.666992 -7.33398 2.33398 -8.00098 5.00098
c-1.33301 6 1.66699 11.667 9 17c6 3.33301 12 7 18 11c14.667 8.66699 39.667 21.334 75 38.001c33.333 15.333 58.333 28.333 75 39c16 14.667 24 27 24 37c0 2.66699 -0.333008 5.33398 -1 8.00098c-1.33301 6 -6 13.667 -14 23c-32 -4 -55 3 -69 21
c-4.66699 9.33301 -7 19 -7 29c0 12.667 5 30 15 52c10.667 24.667 16.667 42.334 18 53.001c7.33301 20 18.333 30.333 33 31c15.333 0.666992 25.666 -1.33301 30.999 -6c21.333 -18.667 34 -49.667 38 -93l5 1v-64z" />
    <glyph glyph-name="asciicircum.001.fina" unicode="&#x679;" horiz-adv-x="695" arabic-form="final" 
d="M678 140c-26 -39.333 -63.6689 -68.998 -113.002 -88.998c-22 -8.66699 -68 -21 -138 -37c-6.66699 -0.666992 -16.334 -2 -29.001 -4c-62 -8 -118 -12 -168 -12c-60.667 0 -113.667 6 -159 18c-29.333 8 -46.666 26 -51.999 54c-2.66699 14.667 -4 30 -4 46
c0 28.667 5 66 15 112c2 4.66699 4.66699 7.33398 8 8.00098c4.66699 2 8.33398 -0.666992 11.001 -8v-46c0 -18 6.66699 -31 20 -39c34.667 -14.667 78 -23.667 130 -27c21.333 -2 68 -2.66699 140 -2c127.333 0.666992 227 17 299 49
c25.333 11.333 46.333 34.666 63 69.999c6.66699 4 11.334 5.66699 14.001 5c1.33301 -0.666992 2 -5.33398 2 -14.001c-2.66699 -12 -10 -30.333 -22 -55c-1.33301 -2.66699 -7 -12.334 -17 -29.001zM340.998 453.002l26.999 37.998l6 -1
c0.666992 -4.66699 0.333984 -10.334 -0.999023 -17.001c-1.33301 -9.33301 -2 -15 -2 -17l-2 -54c-2 -21.333 -5.66699 -39 -11 -53c4 0.666992 9 3.5 15 8.5s10.333 7.83301 13 8.5c22 7.33301 38.5 6.5 49.5 -2.5s14.167 -22.5 9.5 -40.5
c-24 -42.667 -49.333 -66.667 -76 -72c-22 -1.33301 -53.667 -5 -95 -11c-6.66699 0 -11.334 1.33301 -14.001 4c0.666992 10.667 9.33398 18.334 26.001 23.001c30.667 37.333 46 68 46 92c2 8.66699 3 24.334 3 47.001c-0.666992 20.667 1.33301 36.334 6 47.001z
M324.997 276l0.00195312 -3.00098c21.333 4 34.666 6.66699 39.999 8c14.667 4.66699 26 11.334 34 20.001c5.33301 7.33301 7.66602 14.333 6.99902 21l-6 6c-4 1.33301 -8 2 -12 2c-12 0 -23.167 -6.16699 -33.5 -18.5z" />
    <glyph glyph-name="guilsinglright.009" unicode="&#x67e;" horiz-adv-x="695" arabic-form="final" 
d="M678 140c-26 -39.333 -63.6689 -68.998 -113.002 -88.998c-22 -8.66699 -68 -21 -138 -37c-6.66699 -0.666992 -16.334 -2 -29.001 -4c-62 -8 -118 -12 -168 -12c-60.667 0 -113.667 6 -159 18c-29.333 8 -46.666 26 -51.999 54c-2.66699 14.667 -4 30 -4 46
c0 28.667 5 66 15 112c2 4.66699 4.66699 7.33398 8 8.00098c4.66699 2 8.33398 -0.666992 11.001 -8v-46c0 -18 6.66699 -31 20 -39c34.667 -14.667 78 -23.667 130 -27c21.333 -2 68 -2.66699 140 -2c127.333 0.666992 227 17 299 49
c25.333 11.333 46.333 34.666 63 69.999c6.66699 4 11.334 5.66699 14.001 5c1.33301 -0.666992 2 -5.33398 2 -14.001c-2.66699 -12 -10 -30.333 -22 -55c-1.33301 -2.66699 -7 -12.334 -17 -29.001zM310.998 -120.998l2.99902 -0.000976562l26 32
c14.667 16.667 25 27.334 31 32.001c10.667 -5.33301 23 -13.666 37 -24.999l36 -31c3.33301 -5.33301 3.33301 -9.66602 0 -12.999c-5.33301 -8.66699 -23.333 -31.334 -54 -68.001c-5.33301 -1.33301 -11.333 1 -18 7s-11 9.33301 -13 10l-32 24
c-7.33301 6 -15.666 9 -24.999 9c-11.333 -18 -26.333 -37.333 -45 -58c-16.667 12 -42.667 28.667 -78 50c-2 4.66699 -1.33301 8.66699 2 12c16 25.333 33.333 49.666 52 72.999c23.333 -8.66699 49.333 -26.667 78 -54zM332.997 -324.999l-7 0.998047
c-8.66699 4 -20.167 11.667 -34.5 23l-31.5 25c-4 4 -5.66699 6.66699 -5 8c12 14.667 30.667 36.334 56 65.001c6 4 10.667 4.33301 14 1c25.333 -13.333 47.333 -29.666 66 -48.999c-4 -8.66699 -13 -21.167 -27 -37.5z" />
    <glyph glyph-name="agrave.008" unicode="&#x686;" horiz-adv-x="25" arabic-form="final" 
d="M76 569c7.33301 2.66699 18.6631 5.66211 33.9961 8.99512c25.333 5.33301 68.666 8 129.999 8c13.333 0 20.666 -4 21.999 -12c-3.33301 -35.333 -22.666 -73.333 -57.999 -114c-52.667 -59.333 -81.334 -92.666 -86.001 -99.999
c-39.333 -63.333 -59 -126.666 -59 -189.999c0 -44.667 11.333 -84 34 -118c24 -36 63.667 -54 119 -54c54 0 104.333 16.333 151 49c44.667 30.667 79.667 71.334 105 122.001c14 28 27.333 61.333 40 100c4.66699 4.66699 8.66699 5.33398 12 2.00098
c2 -1.33301 1.33301 -12.333 -2 -33c-29.333 -132.667 -82.666 -232.334 -159.999 -299.001c-47.333 -41.333 -101.666 -62 -162.999 -62c-34 0 -65 7.66699 -93 23c-58 40.667 -87 106.334 -87 197.001c0 38 5.33301 78.667 16 122c24.667 99.333 81.334 199 170.001 299
c0 2.66699 -1.33301 4.33398 -4 5.00098c-14 2 -28.333 3 -43 3c-41.333 0 -83.333 -8.33301 -126 -25c-5.33301 0 -8.66602 1.66699 -9.99902 5c0.666992 5.33301 2.33398 12 5.00098 20c0.666992 2 1.33398 3.66699 2.00098 5zM235.997 109.995l-2.99902 0.000976562
l-26 -32c-14.667 -16.667 -25 -27.334 -31 -32.001c-10.667 5.33301 -23 13.666 -37 24.999l-36 31c-3.33301 5.33301 -3.33301 9.66602 0 12.999c5.33301 8.66699 23.333 31.334 54 68.001c5.33301 1.33301 11.333 -1 18 -7s11 -9.33301 13 -10l32 -24
c7.33301 -6 15.666 -9 24.999 -9c11.333 18 26.333 37.333 45 58c16.667 -12 42.667 -28.667 78 -50c2 -4.66699 1.33301 -8.66699 -2 -12c-16 -25.333 -33.333 -49.666 -52 -72.999c-23.333 8.66699 -49.333 26.667 -78 54zM213.998 313.996l7 -0.998047
c8.66699 -4 20.167 -11.667 34.5 -23l31.5 -25c4 -4 5.66699 -6.66699 5 -8c-12 -14.667 -30.667 -36.334 -56 -65.001c-6 -4 -10.667 -4.33301 -14 -1c-25.333 13.333 -47.333 29.666 -66 48.999c4 8.66699 13 21.167 27 37.5z" />
    <glyph glyph-name="e.002.fina" unicode="&#x688;" horiz-adv-x="257" arabic-form="final" 
d="M257 166c0 7.33301 0.331055 14.667 0.998047 22h-2l-24 -65c-9.33301 -25.333 -19.333 -46 -30 -62c-6 -8.66699 -18.333 -16 -37 -22c-35.333 -8 -87.666 -21 -156.999 -39c-5.33301 -0 -7 4.33301 -5 13c14 12.667 33.333 25.667 58 39
c64 33.333 116 78.666 156 135.999c13.333 24 26.333 54.667 39 92l33 96c2 6.66699 5 11 9 13c7.33301 0.666992 12 -1.66602 14 -6.99902c0.666992 -8.66699 -0.666016 -19.334 -3.99902 -32.001c-5.33301 -19.333 -8 -29.333 -8 -30
c-4.66699 -25.333 -7 -45.666 -7 -60.999c0 -22 4 -40 12 -54zM229.998 614.001l26.999 37.998l6 -1c0.666992 -4.66699 0.333984 -10.334 -0.999023 -17.001c-1.33301 -9.33301 -2 -15 -2 -17l-2 -54c-2 -21.333 -5.66699 -39 -11 -53c4 0.666992 9 3.5 15 8.5
s10.333 7.83301 13 8.5c22 7.33301 38.5 6.5 49.5 -2.5s14.167 -22.5 9.5 -40.5c-24 -42.667 -49.333 -66.667 -76 -72c-22 -1.33301 -53.667 -5 -95 -11c-6.66699 0 -11.334 1.33301 -14.001 4c0.666992 10.667 9.33398 18.334 26.001 23.001c30.667 37.333 46 68 46 92
c2 8.66699 3 24.334 3 47.001c-0.666992 20.667 1.33301 36.334 6 47.001zM213.997 436.999l0.00195312 -3.00098c21.333 4 34.666 6.66699 39.999 8c14.667 4.66699 26 11.334 34 20.001c5.33301 7.33301 7.66602 14.333 6.99902 21l-6 6c-4 1.33301 -8 2 -12 2
c-12 0 -23.167 -6.16699 -33.5 -18.5z" />
    <glyph glyph-name="u.009" unicode="&#x691;" horiz-adv-x="344" arabic-form="final" 
d="M344 117c-18.667 -6 -33.332 -14.334 -43.999 -25.001c-24 -25.333 -53 -71.666 -87 -138.999c-32 -63.333 -64.333 -108.333 -97 -135c-59.333 -48.667 -111 -80 -155 -94c-10.667 -2 -14.667 0 -12 6l3 5c124.667 88 207.167 174.5 247.5 259.5
s65.166 134.167 74.499 147.5c20.667 31.333 44 55 70 71v-96zM159.002 372.999l26.999 37.998l6 -1c0.666992 -4.66699 0.333984 -10.334 -0.999023 -17.001c-1.33301 -9.33301 -2 -15 -2 -17l-2 -54c-2 -21.333 -5.66699 -39 -11 -53c4 0.666992 9 3.5 15 8.5
s10.333 7.83301 13 8.5c22 7.33301 38.5 6.5 49.5 -2.5s14.167 -22.5 9.5 -40.5c-24 -42.667 -49.333 -66.667 -76 -72c-22 -1.33301 -53.667 -5 -95 -11c-6.66699 0 -11.334 1.33301 -14.001 4c0.666992 10.667 9.33398 18.334 26.001 23.001c30.667 37.333 46 68 46 92
c2 8.66699 3 24.334 3 47.001c-0.666992 20.667 1.33301 36.334 6 47.001zM143.001 195.997l0.00195312 -3.00098c21.333 4 34.666 6.66699 39.999 8c14.667 4.66699 26 11.334 34 20.001c5.33301 7.33301 7.66602 14.333 6.99902 21l-6 6c-4 1.33301 -8 2 -12 2
c-12 0 -23.167 -6.16699 -33.5 -18.5z" />
    <glyph glyph-name="j.001.fina" unicode="&#x698;" horiz-adv-x="344" arabic-form="final" 
d="M344 117c-18.667 -6 -33.332 -14.334 -43.999 -25.001c-24 -25.333 -53 -71.666 -87 -138.999c-32 -63.333 -64.333 -108.333 -97 -135c-59.333 -48.667 -111 -80 -155 -94c-10.667 -2 -14.667 0 -12 6l3 5c124.667 88 207.167 174.5 247.5 259.5
s65.166 134.167 74.499 147.5c20.667 31.333 44 55 70 71v-96zM169.002 249.999l-2.99902 0.000976562l-26 -32c-14.667 -16.667 -25 -27.334 -31 -32.001c-10.667 5.33301 -23 13.666 -37 24.999l-36 31c-3.33301 5.33301 -3.33301 9.66602 0 12.999
c5.33301 8.66699 23.333 31.334 54 68.001c5.33301 1.33301 11.333 -1 18 -7s11 -9.33301 13 -10l32 -24c7.33301 -6 15.666 -9 24.999 -9c11.333 18 26.333 37.333 45 58c16.667 -12 42.667 -28.667 78 -50c2 -4.66699 1.33301 -8.66699 -2 -12
c-16 -25.333 -33.333 -49.666 -52 -72.999c-23.333 8.66699 -49.333 26.667 -78 54zM147.003 454l7 -0.998047c8.66699 -4 20.167 -11.667 34.5 -23l31.5 -25c4 -4 5.66699 -6.66699 5 -8c-12 -14.667 -30.667 -36.334 -56 -65.001c-6 -4 -10.667 -4.33301 -14 -1
c-25.333 13.333 -47.333 29.666 -66 48.999c4 8.66699 13 21.167 27 37.5z" />
    <glyph glyph-name="H.005" unicode="&#x6a9;" horiz-adv-x="557" arabic-form="final" 
d="M557 122c-0.666992 8.66699 -1.33398 18.6709 -2.00098 30.0039c-24.667 -54.667 -63 -91.334 -115 -110.001c-75.333 -26.667 -153.666 -40 -234.999 -40c-30 0 -59.667 2 -89 6c-24 4 -42.333 9.33301 -55 16c-20 10 -32.667 23.833 -38 41.5s-8 36.834 -8 57.501
c0 23.333 5 60 15 110c2 5.33301 5 8.33301 9 9c5.33301 0.666992 9 -1.33301 11 -6v-49c0 -19.333 7.33301 -32 22 -38c48.667 -20.667 111.334 -31 188.001 -31c32.667 0 71 2 115 6c45.333 8 76 14.667 92 20c32.667 11.333 58.334 29 77.001 53
c7.33301 16 11.666 37 12.999 63c1.33301 22 2.33301 44 3 66c-2 51.333 -1 131.666 3 240.999c19.333 69.333 47.666 117.666 84.999 144.999c39.333 23.333 71.333 40.666 96 51.999l144 65c45.333 20 78.666 39.667 99.999 59c8 6.66699 13.667 7.66699 17 3
c1.33301 -6 -2 -13.667 -10 -23c-38 -48.667 -74.667 -80.334 -110 -95.001l-48 -23l-172 -77c-11.333 -4 -22.666 -10.333 -33.999 -19c-12 -8 -20.333 -17.667 -25 -29c-7.33301 -62.667 -11 -189.667 -11 -381c0.666992 -17.333 1.66699 -35 3 -53
c1.33301 -12 3 -21.667 5 -29z" />
    <glyph glyph-name="v.001.fina" unicode="&#x6af;" horiz-adv-x="557" arabic-form="final" 
d="M788 873l141.998 62.001c2.66699 1.33301 8.66699 5.33301 18 12c6.66699 4.66699 12.667 7 18 7l3 -3c-1.33301 -8.66699 -11.666 -22 -30.999 -40s-45.666 -34.333 -78.999 -49c-54 -23.333 -82.333 -35.666 -85 -36.999l-66 -33c-26 -12.667 -47 -25.334 -63 -38.001
c-5.33301 0 -8.33301 1.33301 -9 4c10.667 29.333 32 53.666 64 72.999c12 7.33301 41.333 21.333 88 42zM556.998 122.001c-0.666992 8.66699 -1.33398 18.6709 -2.00098 30.0039c-24.667 -54.667 -63 -91.334 -115 -110.001c-75.333 -26.667 -153.666 -40 -234.999 -40
c-30 0 -59.667 2 -89 6c-24 4 -42.333 9.33301 -55 16c-20 10 -32.667 23.833 -38 41.5s-8 36.834 -8 57.501c0 23.333 5 60 15 110c2 5.33301 5 8.33301 9 9c5.33301 0.666992 9 -1.33301 11 -6v-49c0 -19.333 7.33301 -32 22 -38c48.667 -20.667 111.334 -31 188.001 -31
c32.667 0 71 2 115 6c45.333 8 76 14.667 92 20c32.667 11.333 58.334 29 77.001 53c7.33301 16 11.666 37 12.999 63c1.33301 22 2.33301 44 3 66c-2 51.333 -1 131.666 3 240.999c19.333 69.333 47.666 117.666 84.999 144.999c39.333 23.333 71.333 40.666 96 51.999
l144 65c45.333 20 78.666 39.667 99.999 59c8 6.66699 13.667 7.66699 17 3c1.33301 -6 -2 -13.667 -10 -23c-38 -48.667 -74.667 -80.334 -110 -95.001l-48 -23l-172 -77c-11.333 -4 -22.666 -10.333 -33.999 -19c-12 -8 -20.333 -17.667 -25 -29
c-7.33301 -62.667 -11 -189.667 -11 -381c0.666992 -17.333 1.66699 -35 3 -53c1.33301 -12 3 -21.667 5 -29z" />
    <glyph glyph-name="aacute.004" unicode="&#x6ba;" horiz-adv-x="521" arabic-form="final" 
d="M521 382c2.66699 -125.333 -36.3311 -246.335 -116.998 -363.002c-65.333 -94 -141 -141 -227 -141c-16 0 -32 2 -48 6c-30 6.66699 -55.333 24.667 -76 54c-19.333 26.667 -31 56.334 -35 89.001c-2 15.333 -3 30.666 -3 45.999c0 62.667 17.333 139.334 52 230.001
c4.66699 12 11.667 26.333 21 43c6 6 9.66699 4 11 -6c-0.666992 -8.66699 -3.33398 -19.334 -8.00098 -32.001l-11 -32c-15.333 -60.667 -23 -105.667 -23 -135c0 -51.333 16 -89 48 -113c26 -19.333 58.333 -29 97 -29c49.333 0 95.166 13.5 137.499 40.5
s76.5 62.667 102.5 107s41 91.833 45 142.5c1.33301 14 1 32 -1 54c-2 26 -4.33301 49.333 -7 70c1.33301 10.667 6.66602 30.334 15.999 59.001c2 1.33301 5 1 9 -1c1.33301 -0.666992 2.33301 -1.66699 3 -3c0.666992 -3.33301 1.33398 -5.66602 2.00098 -6.99902
s1.66699 -2.83301 3 -4.5s3.33301 -3.16699 6 -4.5z" />
    <glyph glyph-name="uni06BB.fina" unicode="&#x6bb;" horiz-adv-x="521" arabic-form="final" 
d="M521 382c2.66699 -125.333 -36.3311 -246.335 -116.998 -363.002c-65.333 -94 -141 -141 -227 -141c-16 0 -32 2 -48 6c-30 6.66699 -55.333 24.667 -76 54c-19.333 26.667 -31 56.334 -35 89.001c-2 15.333 -3 30.666 -3 45.999c0 62.667 17.333 139.334 52 230.001
c4.66699 12 11.667 26.333 21 43c6 6 9.66699 4 11 -6c-0.666992 -8.66699 -3.33398 -19.334 -8.00098 -32.001l-11 -32c-15.333 -60.667 -23 -105.667 -23 -135c0 -51.333 16 -89 48 -113c26 -19.333 58.333 -29 97 -29c49.333 0 95.166 13.5 137.499 40.5
s76.5 62.667 102.5 107s41 91.833 45 142.5c1.33301 14 1 32 -1 54c-2 26 -4.33301 49.333 -7 70c1.33301 10.667 6.66602 30.334 15.999 59.001c2 1.33301 5 1 9 -1c1.33301 -0.666992 2.33301 -1.66699 3 -3c0.666992 -3.33301 1.33398 -5.66602 2.00098 -6.99902
s1.66699 -2.83301 3 -4.5s3.33301 -3.16699 6 -4.5zM277.002 605.998l26.999 37.998l6 -1c0.666992 -4.66699 0.333984 -10.334 -0.999023 -17.001c-1.33301 -9.33301 -2 -15 -2 -17l-2 -54c-2 -21.333 -5.66699 -39 -11 -53c4 0.666992 9 3.5 15 8.5s10.333 7.83301 13 8.5
c22 7.33301 38.5 6.5 49.5 -2.5s14.167 -22.5 9.5 -40.5c-24 -42.667 -49.333 -66.667 -76 -72c-22 -1.33301 -53.667 -5 -95 -11c-6.66699 0 -11.334 1.33301 -14.001 4c0.666992 10.667 9.33398 18.334 26.001 23.001c30.667 37.333 46 68 46 92
c2 8.66699 3 24.334 3 47.001c-0.666992 20.667 1.33301 36.334 6 47.001zM261.001 428.996l0.00195312 -3.00098c21.333 4 34.666 6.66699 39.999 8c14.667 4.66699 26 11.334 34 20.001c5.33301 7.33301 7.66602 14.333 6.99902 21l-6 6c-4 1.33301 -8 2 -12 2
c-12 0 -23.167 -6.16699 -33.5 -18.5zM274.003 359.995l10 0.00195312c8.66699 -4 20.167 -11.667 34.5 -23s25.5 -19 33.5 -23c2.66699 -5.33301 3.66699 -8.66602 3 -9.99902c-12 -14.667 -30.667 -36.334 -56 -65.001c-6 -4 -10.667 -4.33301 -14 -1
c-25.333 13.333 -47.333 29.666 -66 48.999c4 8.66699 13 21.167 27 37.5s23.333 28.166 28 35.499z" />
    <glyph glyph-name="J.005" unicode="&#x6be;" horiz-adv-x="446" arabic-form="final" 
d="M446 314c-11.333 -14 -20.9971 -29.001 -28.9971 -45.001c6.66699 2.66699 16 5.66699 28 9c6 2 12.667 3 20 3c17.333 0 32.666 -6.33301 45.999 -19c11.333 -13.333 17 -28.666 17 -45.999c0 -12.667 -3.33301 -24.667 -10 -36c-16 -26.667 -30.667 -48 -44 -64
c-19.333 -22 -38.333 -40 -57 -54c-24.667 -18 -56.334 -29.667 -95.001 -35c-18.667 -2 -55.334 -3 -110.001 -3c-22.667 -13.333 -53 -20 -91 -20c-20 0 -42.333 2 -67 6c-9.33301 1.33301 -22.333 6 -39 14c0 6.66699 8 11.167 24 13.5s39 7.5 69 15.5
c12 12 23.333 27.667 34 47l27 51l47 100c21.333 38.667 49 62.667 83 72c24 3.33301 44.333 -2 61 -16c10 -10 16.667 -22.333 20 -37h3c12.667 22.667 25.667 43.667 39 63zM302.003 251.999c-17.333 2 -32.668 -4.33398 -46.001 -19.001c-16 -18.667 -33.333 -46 -52 -82
c-21.333 -41.333 -37.666 -69.666 -48.999 -84.999c60.667 16 108.667 41.333 144 76c22 21.333 33 43 33 65c0 8 -2 16 -6 24s-12 15 -24 21zM270.001 65.998l-1.99902 -4.99902c24 2 59.667 10.667 107 26c54.667 24 85.667 55 93 93
c0.666992 11.333 -4 20.666 -14 27.999c-9.33301 4.66699 -18.666 6.66699 -27.999 6c-10.667 0 -20.334 -3 -29.001 -9c-13.333 -12 -34 -35.667 -62 -71c-24.667 -31.333 -46.334 -54 -65.001 -68z" />
    <glyph glyph-name="E.008" unicode="&#x6c1;" horiz-adv-x="151" arabic-form="final" 
d="M151 49c-4.66699 1.33301 -8.99902 1.99902 -12.999 1.99902c-32 0 -69.333 -22.333 -112 -67c-4.66699 -3.33301 -8.33398 -1.66602 -11.001 5.00098v7c21.333 38 46.333 71.333 75 100c20.667 18 41 32.667 61 44v-91z" />
    <glyph glyph-name="Igrave.006" unicode="&#x6cc;" horiz-adv-x="354" arabic-form="final" 
d="M354 385c0 -10.667 3.33105 -17.999 9.99805 -21.999l48 -17c20 -8.66699 32.333 -21 37 -37c6 -20 9 -41 9 -63c0 -32 -7 -70 -21 -114c-17.333 -54 -43.666 -102.333 -78.999 -145c-40 -48.667 -85 -81.334 -135 -98.001c-17.333 -6 -35.333 -9 -54 -9
c-40 0 -71.667 12.667 -95 38c-39.333 42 -59 98 -59 168c0 34.667 5.33301 80.667 16 138c0.666992 3.33301 1.66699 7.33301 3 12c11.333 43.333 31 102.666 59 177.999c1.33301 6 5 8.33301 11 7c4 -2 5 -10 3 -24c-14.667 -39.333 -28.667 -96.666 -42 -171.999
c-2.66699 -20.667 -4 -39.334 -4 -56.001c0 -67.333 19 -115.333 57 -144c21.333 -16 47 -24 77 -24c45.333 0 89.333 15.333 132 46c58.667 42.667 90.667 90.334 96 143.001c0 8 -3 14.5 -9 19.5s-21 11.5 -45 19.5c-19.333 6 -33.333 14.667 -42 26
c-12 16.667 -16.667 46 -14 88c0.666992 10.667 3.33398 24.667 8.00098 42h33z" />
    <glyph glyph-name="Z.004" unicode="&#x6d2;" horiz-adv-x="147" arabic-form="final" 
d="M147 199c-24.667 -13.333 -40 -28.0029 -46 -44.0029c-2 -5.33301 1.33301 -11 10 -17c35.333 -16.667 99 -25.667 191 -27l234 -4l243 4l126 6c8 0.666992 11 -0.666016 9 -3.99902c-2 -4.66699 -14.333 -15 -37 -31c-31.333 -22 -71.333 -38 -120 -48
c-20.667 -4 -65 -9.66699 -133 -17c-110 -11.333 -203 -16.666 -279 -15.999l-156 2c-32.667 2 -60.667 5.33301 -84 10c-30.667 6.66699 -55 18.334 -73 35.001c-11.333 10 -15 22.667 -11 38c22 55.333 55.333 101 100 137c3.33301 2.66699 6 4.66699 8 6z" />
    <glyph glyph-name="uniFDF2" unicode="&#xfdf2;" horiz-adv-x="652" arabic-form="isolated" 
d="M463 277c6.66699 -38.667 15.835 -63.3369 27.502 -74.0039s24.5 -15.834 38.5 -15.501s25.333 3.5 34 9.5s14 15.333 16 28c4 20.667 4.66699 61.667 2 123s-4 101 -4 119v14c0 3.33301 0.666992 8 2 14c4 7.33301 7.83301 17.5 11.5 30.5s7.66699 26.333 12 40l12 38.5
c3.66699 12 6.16699 20.667 7.5 26c2.66699 8 4.83398 10.5 6.50098 7.5s3 -10 4 -21s1.83301 -25.5 2.5 -43.5s1.33398 -38.333 2.00098 -61c0 -20.667 -0.166992 -41.5 -0.5 -62.5s-2.83301 -85.167 -7.5 -192.5c-4 -26 -9.83301 -51.167 -17.5 -75.5
s-16.5 -46.666 -26.5 -66.999s-23.833 -37.833 -41.5 -52.5s-37.834 -22 -60.501 -22c-14.667 0 -27.334 3 -38.001 9s-21 13.667 -31 23c-13.333 -29.333 -30 -51 -50 -65s-39.833 -20.167 -59.5 -18.5s-37.167 11.5 -52.5 29.5s-24.666 44.333 -27.999 79
c-0.666992 -0.666992 -1 -0.666992 -1 0s-1 -0.666016 -3 -3.99902c-5.33301 -12 -10.333 -22.667 -15 -32s-9.66699 -17.666 -15 -24.999s-11.333 -14.166 -18 -20.499s-15 -12.5 -25 -18.5l-55.5 -27.5l-55.5 -27.5c-13.333 -6 -20.166 -8.16699 -20.499 -6.5
s5.16699 7.16699 16.5 16.5c45.333 40.667 87 82.334 125 125.001s71 90.667 99 144c7.33301 15.333 12.166 25 14.499 29s3.5 2.33301 3.5 -5c-1.33301 -10 -2.5 -19.667 -3.5 -29s-0.833008 -22.333 0.5 -39c4 -17.333 11.667 -31 23 -41s25.666 -14 42.999 -12
c27.333 2.66699 47.166 19 59.499 49s21.166 58.833 26.499 86.5l12 62.5c0.666992 4.66699 4.16699 8.66699 10.5 12s10.5 2 12.5 -4c0 -7.33301 0.333008 -14.5 1 -21.5s2 -17.5 4 -31.5zM505.001 620.997c6 -31.333 9.00195 -56.3311 9.00195 -74.998
c0 -37.333 -10.333 -65.333 -31 -84c-13.333 -15.333 -31 -18.333 -53 -9c-8.66699 6.66699 -14.334 14.334 -17.001 23.001c-16 -23.333 -31.333 -35 -46 -35c-13.333 0 -26 8 -38 24c-4.66699 11.333 -7 23.666 -7 36.999c0 26 8.33301 54.333 25 85c2 6 5 7.66699 9 5
s5 -7.66699 3 -15c-7.33301 -29.333 -11 -48.333 -11 -57c0 -12.667 2.5 -22.167 7.5 -28.5s11.833 -9.5 20.5 -9.5c13.333 2 23 10 29 24l14 35c3.33301 1.33301 6 -0.666992 8 -6c1.33301 -13.333 2.66602 -21.333 3.99902 -24
c2.66699 -8.66699 7.66699 -15.334 15 -20.001c14 -6 25.167 -4.83301 33.5 3.5s12.5 20.166 12.5 35.499c0 1.33301 -3 20.333 -9 57c4.66699 8.66699 12 20 22 34zM437.003 692.999l1 -2c0 -37.333 -6.66699 -62.666 -20 -75.999
c-4.66699 -1.33301 -7.66699 0.666992 -9 6c2 24.667 0.666992 47.667 -4 69c-5.33301 27.333 -8.33301 50.333 -9 69c4 14.667 9.33301 37 16 67c1.33301 3.33301 5 4.33301 11 3l4 -11c2.66699 -20.667 6 -62.334 10 -125.001z" />
    <glyph glyph-name="uniFDFA" unicode="&#xfdfa;" horiz-adv-x="1718" arabic-form="isolated" 
d="M42 -312c-3.33301 60 -6.16992 118.836 -8.50293 176.503s-3.5 116.167 -3.5 175.5v98c0.666992 29.333 3.5 58.5 8.5 87.5s12.833 56.833 23.5 83.5s25.167 51.167 43.5 73.5s41.5 41.5 69.5 57.5c10 6 21 11 33 15s23.667 7.66699 35 11
c-1.33301 2.66699 -4 3.83398 -8 3.50098s-6 1.16699 -6 4.5c0 8.66699 2.5 16.167 7.5 22.5s9.16699 15.5 12.5 27.5c0.666992 5.33301 2.16699 13.333 4.5 24s4.5 21.834 6.5 33.501s4 22.5 6 32.5s3.33301 17 4 21c2.66699 16.667 4 33.334 4 50.001
s0.333008 33.334 1 50.001c0 11.333 0.166992 25.666 0.5 42.999l1 50.5c0.333008 16.333 0.5 30.166 0.5 41.499v18l18 54l17 53c1.33301 2.66699 2.33301 2.66699 3 0c1.33301 -36.667 2.5 -73.167 3.5 -109.5s2.16699 -73.166 3.5 -110.499
c0.666992 -8.66699 3.16699 -17.334 7.5 -26.001s9.66602 -16.334 15.999 -23.001s13.5 -12.167 21.5 -16.5s16.333 -6.5 25 -6.5c5.33301 0 11.166 0.666992 17.499 2s11.5 4 15.5 8l28 27.5l28 27.5c4.66699 4.66699 10.334 8.16699 17.001 10.5s13.334 3.5 20.001 3.5
c3.33301 0 6.66602 -0.666992 9.99902 -2s7 -2 11 -2c5.33301 0 9.5 2 12.5 6s5.5 8.33301 7.5 13l5.5 13c1.66699 4 3.5 6 5.5 6c2 0.666992 3.83301 0.333984 5.5 -0.999023s3.5 -2 5.5 -2c4 0 7.5 1.5 10.5 4.5s5.83301 6.66699 8.5 11s5 8.83301 7 13.5l5 12
c3.33301 5.33301 5.83301 7.16602 7.5 5.49902s2.16699 -5.5 1.5 -11.5c-3.33301 -21.333 -11.833 -41.833 -25.5 -61.5s-27.834 -36.167 -42.501 -49.5c-1.33301 -0.666992 -3.5 -2.5 -6.5 -5.5s-6.5 -6 -10.5 -9l-12.5 -9c-4.33301 -3 -8.16602 -4.83301 -11.499 -5.5
c-4.66699 0 -8.66699 0.666992 -12 2s-7.66602 1.66602 -12.999 0.999023c-6.66699 0 -13 -2 -19 -6c-6.66699 -6.66699 -13.5 -16 -20.5 -28s-15 -23.667 -24 -35s-19.5 -21.5 -31.5 -30.5s-26.333 -13.833 -43 -14.5c-9.33301 0 -18.5 2.16699 -27.5 6.5
s-17.167 9.16602 -24.5 14.499c-3.33301 -6.66699 -6.66602 -14 -9.99902 -22s-5.66602 -15.667 -6.99902 -23l28 -13c10 -4.66699 19.167 -10.334 27.5 -17.001s15.333 -14.167 21 -22.5s8.5 -18.166 8.5 -29.499c0 -12.667 -3 -24.834 -9 -36.501
s-13.667 -22.167 -23 -31.5s-20 -17.5 -32 -24.5s-24 -12.167 -36 -15.5s-27.833 -6.5 -47.5 -9.5s-38.5 -7.16699 -56.5 -12.5c-23.333 -9.33301 -43.666 -23 -60.999 -41s-27.333 -42 -30 -72l-9.5 -292.5c-3 -94.333 -5.83301 -191.833 -8.5 -292.5
c-2 -0.666992 -3.5 0.166016 -4.5 2.49902s-1.83301 5 -2.5 8l-2 9c-0.666992 3 -1 4.83301 -1 5.5zM925.996 -43.9971c0 14 0.50293 26.9971 1.50293 38.9971s2.5 23.667 4.5 35s4.5 23 7.5 35s6.5 24.667 10.5 38c2.66699 10 5.33398 18.667 8.00098 26l8 21l9 21.5
l12 28.5c3.33301 6.66699 6 9.83398 8 9.50098s1.66699 -4.5 -1 -12.5c-8.66699 -30.667 -16.167 -60.5 -22.5 -89.5s-9.5 -59.5 -9.5 -91.5c0 -20.667 2.33301 -40.667 7 -60s12.167 -36.666 22.5 -51.999s23.666 -27.666 39.999 -36.999s36.166 -14 59.499 -14
c18 0 35.5 3.33301 52.5 10s32.833 15.334 47.5 26.001s28.167 23 40.5 37s22.5 28.667 30.5 44c6 10.667 10.5 19.5 13.5 26.5s4.5 15.833 4.5 26.5c-1.33301 14 -6.5 25.333 -15.5 34s-18.667 16.334 -29 23.001s-19.5 13.167 -27.5 19.5s-11.333 14.166 -10 23.499
c0 11.333 2.5 22.333 7.5 33l14.5 32c7.33301 20 13.666 40.667 18.999 62s9.66602 43 12.999 65c1.33301 34 1.83301 69.333 1.5 106s0.5 72.334 2.5 107.001c2.66699 9.33301 6 20 10 32l11 33.5c3.33301 10.333 6.5 19.166 9.5 26.499s5.5 10.666 7.5 9.99902
c1.33301 -38.667 2 -77.667 2 -117s0.333008 -78.666 1 -117.999c-0.666992 -18 2 -33.667 8 -47s14.5 -23.5 25.5 -30.5s23.667 -10.167 38 -9.5s29.833 6.33398 46.5 17.001c4 3.33301 7.83301 7.33301 11.5 12s7 9.33398 10 14.001s6 8.5 9 11.5s6.16699 4.5 9.5 4.5
c7.33301 0 14 -2.66699 20 -8s12.667 -7.33301 20 -6l42 46.5c13.333 15 27.666 29.5 42.999 43.5c6.66699 5.33301 14.334 10.833 23.001 16.5s17.667 8.5 27 8.5c12 0 22.167 -3.66699 30.5 -11s12.5 -17 12.5 -29c0 -9.33301 -1.66699 -19.333 -5 -30s-7 -20 -11 -28
c-14.667 -30 -36.667 -54.667 -66 -74s-61 -29 -95 -29c-17.333 0 -30.833 2.83301 -40.5 8.5s-17.5 16.5 -23.5 32.5l-19 -30c-6.66699 -10.667 -14.167 -20.334 -22.5 -29.001s-17.666 -15.834 -27.999 -21.501s-21.833 -8.5 -34.5 -8.5c-30 0 -51.333 15 -64 45
c-1.33301 -2 -3 -5.5 -5 -10.5s-4 -10.333 -6 -16l-6 -17c-2 -5.66699 -3.66699 -9.83398 -5 -12.501c0 -2.66699 0.666992 -5 2 -7c2 -4 7.16699 -9.33301 15.5 -16s17.166 -14.834 26.499 -24.501s17.333 -20.667 24 -33s9.66699 -26.5 9 -42.5
c-0.666992 -20.667 -3.83398 -43.5 -9.50098 -68.5s-13.5 -49.833 -23.5 -74.5s-22.167 -48.5 -36.5 -71.5s-30.333 -43.333 -48 -61s-37 -31.667 -58 -42s-43.5 -15.166 -67.5 -14.499c-30 0 -54.667 5.83301 -74 17.5s-34.833 27.167 -46.5 46.5s-19.667 41 -24 65
s-6.16602 48.667 -5.49902 74zM465.999 -17c0 16.667 -3.16992 32.8262 -9.50293 48.4932s-15.833 26.834 -28.5 33.501c0.666992 7.33301 2.83398 15.833 6.50098 25.5s5.83398 14.5 6.50098 14.5c6.66699 -2 12.334 -5.5 17.001 -10.5l11 -11.5
c6.66699 -9.33301 11.334 -20.166 14.001 -32.499s4 -24.166 4 -35.499c0 -19.333 -3.33301 -38.166 -10 -56.499s-14.667 -36.166 -24 -53.499c-2 -3.33301 -3.83301 -5.16602 -5.5 -5.49902s-1.83398 1.83398 -0.500977 6.50098c5.33301 14.667 9.83301 27.5 13.5 38.5
s5.5 23.833 5.5 38.5zM649.996 62.9922l2.50195 2.5c0.333008 0.333008 0.833008 0.5 1.5 0.5l1 -1c1.33301 -1.33301 4 -3.5 8 -6.5s8 -6.16699 12 -9.5s8 -6.5 12 -9.5s6.66699 -5.16699 8 -6.5c0.666992 -0.666992 3.5 -2.66699 8.5 -6s8.83301 -5.66602 11.5 -6.99902
c3.33301 -1.33301 5.5 -2.5 6.5 -3.5s2.83301 -1.5 5.5 -1.5s4.33398 1 5.00098 3l44 66l76 -56l3 -3v-1v-1c0 -1.33301 -1 -3 -3 -5l-47 -68c-1.33301 -1.33301 -3 -2 -5 -2c-2.66699 0 -5.33398 0.666992 -8.00098 2l-65 48l-45 -63c-1.33301 -1.33301 -3 -2 -5 -2
c-4.66699 0 -10.334 2.16699 -17.001 6.5s-11.667 7.83301 -15 10.5l-12.5 9.5c-5.66699 4.33301 -9.16699 7.16602 -10.5 8.49902c-2.66699 2 -8.33398 7.66699 -17.001 17v8zM691.998 260.992c11.333 0 21.6592 -3.00391 30.9922 -9.00391s19.666 -9 30.999 -9
c12.667 0 25.834 3.16699 39.501 9.5s25.834 13.166 36.501 20.499c3.33301 2 8.16602 6.16699 14.499 12.5s11.5 12.166 15.5 17.499c5.33301 6.66699 8.66602 9 9.99902 7s1.33301 -5.33301 0 -10c-2 -6.66699 -4.5 -13 -7.5 -19s-5.5 -12.333 -7.5 -19
c6 0 13.667 0.333008 23 1s18.5 2.16699 27.5 4.5s17 5.83301 24 10.5s11.167 11.334 12.5 20.001v285c0 5.33301 1.33301 11.833 4 19.5l6 17.5c0.666992 2.66699 2.33398 7.16699 5.00098 13.5l8 19.5c2.66699 6.66699 5.33398 13 8.00098 19s4.66699 10.333 6 13l2 4
c0.666992 1.33301 2 2 4 2c-1.33301 -34 -2.5 -68.833 -3.5 -104.5s-1.5 -70.167 -1.5 -103.5c0 -12 0.333008 -23 1 -33s2.33398 -19 5.00098 -27s7 -15.5 13 -22.5s14.667 -13.833 26 -20.5c2.66699 2.66699 6 7.33398 10 14.001s8 14 12 22l11 22.5l8 16.5
c7.33301 13.333 16.833 26.5 28.5 39.5s25.834 19.5 42.501 19.5c10 0 20.5 -3.33301 31.5 -10s16.5 -15.667 16.5 -27c0 -5.33301 -2.16699 -10.333 -6.5 -15s-9.16602 -7 -14.499 -7c-8.66699 0 -17 1.83301 -25 5.5s-16.333 5.5 -25 5.5
c-10.667 0 -21.167 -4.16699 -31.5 -12.5s-15.5 -18.166 -15.5 -29.499c0 -6 2.16699 -11.667 6.5 -17s9.5 -10 15.5 -14s12.333 -7.16699 19 -9.5s12.667 -3.5 18 -3.5c7.33301 0 14.666 2 21.999 6s14.333 8.83301 21 14.5s12.834 11.834 18.501 18.501
s10.5 12.667 14.5 18c2.66699 4 4.5 5.83301 5.5 5.5s1.33301 -1.83301 1 -4.5s-1.16602 -5.66699 -2.49902 -9s-2.66602 -6.33301 -3.99902 -9c-1.33301 -2 -3.66602 -5.83301 -6.99902 -11.5l-10.5 -17.5l-10.5 -17l-7 -11c-6 -9.33301 -13.167 -19.166 -21.5 -29.499
s-17.666 -20 -27.999 -29s-21.666 -16.333 -33.999 -22s-24.833 -8.5 -37.5 -8.5c-15.333 0 -28.833 3.16699 -40.5 9.5s-22.167 13.166 -31.5 20.499c-1.33301 -2 -3.16602 -5.16699 -5.49902 -9.5l-7.5 -14c-2.66699 -5 -5.16699 -10 -7.5 -15
s-4.16602 -8.5 -5.49902 -10.5c-2 -3.33301 -5 -7.83301 -9 -13.5s-8.33301 -11.167 -13 -16.5s-9.33398 -10 -14.001 -14s-8.66699 -6 -12 -6c-4.66699 0 -9.83398 1.16699 -15.501 3.5s-11.167 5.16602 -16.5 8.49902s-10.333 6.66602 -15 9.99902l-11 8
c-6.66699 -10.667 -14 -21.167 -22 -31.5s-16.833 -19.666 -26.5 -27.999s-20.334 -15.166 -32.001 -20.499s-24.5 -8 -38.5 -8c-13.333 0 -26 3.66699 -38 11s-24.667 11 -38 11c-20.667 -1.33301 -37.5 -8 -50.5 -20s-25.167 -24 -36.5 -36
c-5.33301 -6.66699 -10 -12.167 -14 -16.5s-5.33301 -3.83301 -4 1.5c4.66699 16.667 11.334 34.334 20.001 53.001s19.167 36.167 31.5 52.5s26.666 29.833 42.999 40.5s34.833 16.334 55.5 17.001zM516.991 392.988c8.66699 0 17.3359 -2.50098 26.0029 -7.50098
s19.334 -7.5 32.001 -7.5c6 0 13.167 1.16699 21.5 3.5s16.166 5.5 23.499 9.5s13.666 8.83301 18.999 14.5s8 12.167 8 19.5v268c-0.666992 25.333 3.33301 48.666 12 69.999l26 67c1.33301 2.66699 2.5 5.33398 3.5 8.00098s2.83301 4.33398 5.5 5.00098
c0 -62.667 -0.5 -125 -1.5 -187s-3.5 -124 -7.5 -186c-1.33301 -14.667 -5.5 -32.834 -12.5 -54.501s-16.333 -42.667 -28 -63s-25.667 -37.833 -42 -52.5s-34.5 -22 -54.5 -22c-6 0 -11.5 1.16699 -16.5 3.5s-9.83301 5 -14.5 8s-9.5 5.66699 -14.5 8s-10.5 3.5 -16.5 3.5
c-9.33301 -0.666992 -18.666 -3 -27.999 -7s-18.333 -9 -27 -15s-17 -12.667 -25 -20s-15 -14.333 -21 -21c-2 -1.33301 -3 -1.33301 -3 0c0.666992 14.667 5.66699 31 15 49s20.666 34.833 33.999 50.5s27.666 28.834 42.999 39.501s29.666 16 42.999 16zM1621.99 432.987
c-7.33301 0 -15.334 -1.49805 -24.001 -4.49805s-15.667 -7.5 -21 -13.5c-11.333 -10.667 -22 -21.334 -32 -32.001l-30 -33c10.667 -0.666992 24.167 0.833008 40.5 4.5s31.833 8.5 46.5 14.5s27.167 12.667 37.5 20s15.5 14 15.5 20c0 9.33301 -3.66699 15.666 -11 18.999
s-14.666 5 -21.999 5zM1681.99 1092.99c0.666992 1.33301 1.49902 2.83594 2.49902 4.50293s2.16699 2.5 3.5 2.5l-2 -200c-0.666992 -66.667 -3.66699 -133.334 -9 -200.001c-4 -34.667 -14 -68.667 -30 -102l-6 -12.5c-2.66699 -5.66699 -5 -8.16699 -7 -7.5
c1.33301 31.333 2.5 64.166 3.5 98.499s1.66699 68.833 2 103.5l1 103c0.333008 34 0.5 66 0.5 96c5.33301 20 11.833 39.167 19.5 57.5s14.834 37.166 21.501 56.499zM1159.99 594.992l69.4961 74.9971c23 26 43.167 53.667 60.5 83l20 40c0.666992 1.33301 2 4.5 4 9.5
s3.33301 8.16699 4 9.5c0.666992 2 2.33398 3 5.00098 3l-2 -22.5c-0.666992 -7.66699 -0.333984 -15.167 0.999023 -22.5c0.666992 -4.66699 3 -9 7 -13s8.5 -7.5 13.5 -10.5s10 -5.33301 15 -7s9.5 -2.5 13.5 -2.5c10.667 0 19.834 2.33301 27.501 7
s14.167 10.667 19.5 18s9.83301 15.5 13.5 24.5l10.5 26.5c0.666992 1.33301 1.33398 2.83301 2.00098 4.5s1.33398 2.5 2.00098 2.5c2 0 3.33301 -1.5 4 -4.5s1.83398 -6.5 3.50098 -10.5s4 -8.16699 7 -12.5s7.83301 -7.5 14.5 -9.5s12.667 -2.83301 18 -2.5
s11 1.16602 17 2.49902c5.33301 1.33301 10.666 4.16602 15.999 8.49902s8.33301 9.16602 9 14.499c0 13.333 -1.5 26.833 -4.5 40.5s-4.5 27.167 -4.5 40.5c0 4 1.16699 10.5 3.5 19.5l7.5 28.5c2.66699 10 5.33398 19.5 8.00098 28.5s4.33398 15.5 5.00098 19.5
c2 9.33301 3.83301 14.833 5.5 16.5s3.16699 -3.16602 4.5 -14.499c2 -17.333 3.83301 -35.666 5.5 -54.999s2.5 -35 2.5 -47c0.666992 -13.333 -0.5 -31.333 -3.5 -54s-8.33301 -45.167 -16 -67.5s-17.834 -41.833 -30.501 -58.5s-28 -25.667 -46 -27
c-18.667 -0.666992 -34 6 -46 20l-12.5 -21c-4.33301 -7.33301 -9.33301 -14.166 -15 -20.499s-12.167 -11.666 -19.5 -15.999s-15.666 -6.5 -24.999 -6.5c-10.667 0.666992 -19.667 3.5 -27 8.5s-13.333 11 -18 18s-8.5 14.5 -11.5 22.5s-5.5 15.333 -7.5 22
c-7.33301 -14 -14.833 -27.167 -22.5 -39.5s-18.5 -22.5 -32.5 -30.5c-5.33301 -3.33301 -12 -7.16602 -20 -11.499l-24 -13l-29 -15.5c-1.33301 -1.33301 -2.33301 -1.66602 -3 -0.999023s-0.333984 1.66699 0.999023 3zM1077.99 915.989
c0 3.33301 -1.5 6.16602 -4.5 8.49902s-6.16699 3.5 -9.5 3.5c-6 0 -11.667 -1.33301 -17 -4s-11 -4 -17 -4c-8 0 -15.833 1.5 -23.5 4.5s-14.5 7 -20.5 12s-11 11.167 -15 18.5s-6 15 -6 23c0 10.667 2.16699 21.667 6.5 33l13.5 34c4 11.333 7.33301 21.833 10 31.5
s4.66699 16.167 6 19.5c3.33301 7.33301 8.16602 13.5 14.499 18.5s13.5 7.5 21.5 7.5c14 0 26 -5.16699 36 -15.5s18 -22.666 24 -36.999s10.333 -29.5 13 -45.5s4 -29.333 4 -40c0 -16 -2.16699 -31.333 -6.5 -46s-9.66602 -29 -15.999 -43s-13.5 -27.833 -21.5 -41.5
l-23 -40.5l-63.5 -21.5l-63.5 -21.5c-7.33301 -2 -10.5 -1.66699 -9.5 1s2.5 5 4.5 7l70 54l70 53c5.33301 4 10.5 8.33301 15.5 13s7.5 10.667 7.5 18zM689.987 1024.99c30 0 57.498 7.83105 82.498 23.498s46.5 34.5 64.5 56.5l12 17
c4.66699 6.66699 8.33398 13 11.001 19c3.33301 6 5.5 8 6.5 6s0.833008 -5.66699 -0.5 -11c-1.33301 -8.66699 -4 -18.167 -8 -28.5s-7.66699 -18.5 -11 -24.5c-7.33301 -19.333 -16.666 -37.666 -27.999 -54.999s-24.333 -32.666 -39 -45.999
s-31.334 -24.166 -50.001 -32.499s-39 -12.833 -61 -13.5c-15.333 0 -27 1.16699 -35 3.5s-14.5 4.66602 -19.5 6.99902l-14 6.5c-4.33301 2 -10.166 3 -17.499 3c-6 0 -12.167 -1.83301 -18.5 -5.5s-12.5 -8.5 -18.5 -14.5s-11.667 -12.5 -17 -19.5l-14 -18.5
c-1.33301 -3.33301 -2.66602 -3.33301 -3.99902 0c0 11.333 3.33301 25 10 41s15 31.5 25 46.5s21 27.667 33 38s23.667 15.5 35 15.5c12.667 0 25.167 -2.33301 37.5 -7s25.166 -7 38.499 -7zM808.985 866.987c0.666992 1.33301 1.49902 2.83594 2.49902 4.50293
s2.16699 2.5 3.5 2.5l-2 -200c-0.666992 -66.667 -3.66699 -133.334 -9 -200.001c-4 -34.667 -14 -68.667 -30 -102l-6 -12.5c-2.66699 -5.66699 -5 -8.16699 -7 -7.5c1.33301 31.333 2.5 64.166 3.5 98.499s1.66699 68.833 2 103.5l1 103c0.333008 34 0.5 66 0.5 96
c5.33301 20 11.833 39.167 19.5 57.5s14.834 37.166 21.501 56.499zM290.984 96.9902c0 8.66699 -4.67188 13.0029 -14.0049 13.0029c-5.33301 0 -10.666 -1.33301 -15.999 -4s-11 -4 -17 -4c-16 0 -30.833 5.5 -44.5 16.5s-20.5 24.5 -20.5 40.5
c0 10.667 2.16699 21.834 6.5 33.501l12.5 34.5c4.66699 11.333 8.33398 21.666 11.001 30.999s4.66699 15.666 6 18.999c3.33301 7.33301 8 13.666 14 18.999s13.333 8 22 8c14 0 26 -5.16699 36 -15.5s18 -22.833 24 -37.5s10.333 -29.834 13 -45.501s4 -28.834 4 -39.501
c0 -16 -2.16699 -31.333 -6.5 -46s-9.66602 -29 -15.999 -43s-13.5 -27.833 -21.5 -41.5l-23 -40.5l-63.5 -21.5l-63.5 -21.5c-7.33301 -2 -10.666 -1.66699 -9.99902 1s2.33398 5 5.00098 7l70 53l70 54c5.33301 4 10.333 8.33301 15 13s7 10.334 7 17.001z
M1178.98 771.993c7.33301 4.66699 13.6699 8.33301 19.0029 11s10.666 5.66699 15.999 9c-4.66699 -6.66699 -9.83398 -13 -15.501 -19s-11.167 -12.667 -16.5 -20l-37 -21l-39 -22c-1.33301 -0.666992 -3.33301 -2 -6 -4s-5.83398 -4 -9.50098 -6s-7 -4 -10 -6
s-5.5 -3.33301 -7.5 -4l10 16.5l10 16.5c12 9.33301 25 17.5 39 24.5zM1497.98 560.992c7.33301 4.66699 13.667 8.33301 19 11s11 5.66699 17 9c-5.33301 -6.66699 -10.833 -13 -16.5 -19s-11.167 -12.667 -16.5 -20l-36.5 -21l-39.5 -22
c-1.33301 -0.666992 -3.33301 -2 -6 -4s-5.83398 -4 -9.50098 -6s-7 -4 -10 -6s-5.5 -3.33301 -7.5 -4l10 16.5l10 16.5c12.667 9.33301 25.834 17.5 39.501 24.5zM1439.98 1159.99l10.001 33.5l10 33.5l2.5 5c1 2 2.5 3 4.5 3c0 -1.33301 -0.166992 -4 -0.5 -8
s-0.5 -6.66699 -0.5 -8v-26v-41c0 -14.667 -0.166992 -28.5 -0.5 -41.5s-0.5 -21.5 -0.5 -25.5c-0.666992 -4 -2 -9.83301 -4 -17.5s-4.33301 -15.5 -7 -23.5s-5.33398 -15.5 -8.00098 -22.5s-4.66699 -11.833 -6 -14.5c0 -2.66699 -1.33301 -4 -4 -4
c0.666992 10 1.16699 22 1.5 36l1 43l1 43c0.333008 14 0.5 25.667 0.5 35zM1398.99 960.991c1.33301 3.33301 2.33203 4.66602 2.99902 3.99902c0 -5.33301 -0.333008 -11 -1 -17s-1 -12 -1 -18c0 -6.66699 0.833008 -12.834 2.5 -18.501s6.16699 -8.5 13.5 -8.5
s11.5 2.33301 12.5 7s2.16699 10.667 3.5 18c1.33301 5.33301 2.5 10.5 3.5 15.5s2.16699 9.5 3.5 13.5c2 6.66699 5 11.667 9 15c0 -5.33301 -0.333008 -10.833 -1 -16.5s-1 -11.167 -1 -16.5c0 -6.66699 0.666992 -13.667 2 -21s7 -12 17 -14c4 0 7.33301 1.66699 10 5
c0 7.33301 -0.166992 13.833 -0.5 19.5s0.833984 12.5 3.50098 20.5c2 6 4.16699 11.833 6.5 17.5s4.16602 9.16699 5.49902 10.5c0.666992 -6 1 -13.667 1 -23c0 -8.66699 -0.666992 -18 -2 -28c-0.666992 -4 -1.66699 -9.16699 -3 -15.5s-3.33301 -12.666 -6 -18.999
s-6 -11.666 -10 -15.999s-8.66699 -6.5 -14 -6.5s-9.66602 1.66699 -12.999 5s-6.33301 7.66602 -9 12.999c-3.33301 -5.33301 -6.83301 -10.166 -10.5 -14.499s-9.16699 -6.5 -16.5 -6.5s-12.833 3 -16.5 9s-5.5 13 -5.5 21c-0.666992 5.33301 -0.5 12.333 0.5 21
s2.5 16 4.5 22c2 10 5 17.333 9 22zM270.984 1108.99c1.33301 1.33301 1.99805 2.33203 1.99805 2.99902s0.666992 1 2 1c0 -6 -0.5 -12 -1.5 -18s-1.5 -12 -1.5 -18s1 -12 3 -18s6.66699 -9 14 -9c7.33301 0.666992 11.5 3.33398 12.5 8.00098l3.5 17
c0.666992 5.33301 1.5 10.666 2.5 15.999s2.16699 10 3.5 14c3.33301 7.33301 6.66602 12.333 9.99902 15c0 -5.33301 -0.333008 -10.833 -1 -16.5s-1 -11.167 -1 -16.5c0 -6.66699 0.666992 -13.667 2 -21s7 -12 17 -14c4 0 7 1.33301 9 4
c0.666992 7.33301 0.833984 13.833 0.500977 19.5s0.833984 12.5 3.50098 20.5c1.33301 6 3.33301 12 6 18s4.66699 9.66699 6 11c0.666992 -6.66699 1 -14.334 1 -23.001s-0.666992 -18 -2 -28c-0.666992 -4 -1.66699 -9.33301 -3 -16s-3.33301 -13 -6 -19
s-6 -11.333 -10 -16s-9 -7 -15 -7c-5.33301 0 -9.66602 1.83301 -12.999 5.5s-6 7.83398 -8 12.501c-3.33301 -5.33301 -7 -10.166 -11 -14.499s-9.33301 -6.5 -16 -6.5c-7.33301 0 -13 3 -17 9s-6 13.333 -6 22c0 5.33301 0.333008 12.333 1 21s2 16 4 22
c3.33301 10.667 6.33301 18 9 22z" />
    <glyph glyph-name="uniFEFB" unicode="&#xfefb;" horiz-adv-x="311" arabic-form="isolated" 
d="M68 200l-7.99902 161.997c1.33301 18 6.66602 38.667 15.999 62c14 38 21.5 58.167 22.5 60.5s3.83301 5.83301 8.5 10.5c1.33301 0.666992 3.33301 -3 6 -11c-2 -35.333 -2.33301 -84.666 -1 -147.999c1.33301 -68.667 1.66602 -115 0.999023 -139
c-2 -56 -14.333 -103 -37 -141l12 -6c34.667 0 59.667 1.66699 75 5c26 6.66699 45 20 57 40c16.667 28.667 25 65.667 25 111c0 8 -0.333008 23 -1 45c-0.666992 20 -1 35.667 -1 47c-2 42.667 -2 105.334 0 188.001c9.33301 22.667 22.333 56.667 39 102
c3.33301 10.667 7.33301 12.334 12 5.00098c1.33301 -8 1.33301 -19 0 -33c-2 -18 -3 -29.333 -3 -34c0 -18 0.666992 -53.667 2 -107c0.666992 -46 1 -82.667 1 -110c-0.666992 -40 -3 -75.667 -7 -107c-12 -96.667 -53 -160.667 -123 -192c-24.667 -6 -45.667 -9 -63 -9
c-30 0 -52.333 8.66699 -67 26c-8.66699 8.66699 -15 17 -19 25c0 4.66699 1.66699 7 5 7c2.66699 0.666992 7.33398 0 14.001 -2s11 -3 13 -3c6.66699 0 10 4.33301 10 13c10 32.667 13.667 77 11 133z" />
    <glyph glyph-name=".notdef" horiz-adv-x="250" 
 />
    <glyph glyph-name="uni0006" horiz-adv-x="-1" 
 />
    <glyph glyph-name="space" unicode=" " horiz-adv-x="310" 
 />
    <glyph glyph-name="exclam" unicode="!" horiz-adv-x="333" 
d="M176 175h-19l-43 396c-2 17.333 -3 30 -3 38c0 20.667 5.5 37.167 16.5 49.5s24.167 18.5 39.5 18.5s28.333 -6.16699 39 -18.5s16 -30.5 16 -54.5c0 -8 -0.666992 -19 -2 -33zM166 94c14.667 0 27.334 -5.33301 38.001 -16s16 -23 16 -37
c0 -15.333 -5.33301 -28.333 -16 -39s-23.334 -16 -38.001 -16s-27.334 5.33301 -38.001 16s-16 23.667 -16 39c0 14 5.33301 26.333 16 37s23.334 16 38.001 16z" />
    <glyph glyph-name="quotedbl" unicode="&#x22;" horiz-adv-x="408" 
d="M281 392l-26 143l-11 59c-0.666992 8 -1 16 -1 24c0 20.667 4.66699 35.667 14 45s21.333 14 36 14c14 0 25.667 -4.66699 35 -14s14 -22 14 -38c0 -28 -3 -58 -9 -90l-28 -143h-24zM103 392l-27.001 145c-7.33301 39.333 -11 66.333 -11 81
c0 20.667 4.33301 35.667 13 45s20.334 14 35.001 14c14 0 25.833 -4.83301 35.5 -14.5s14.5 -22.167 14.5 -37.5c0 -13.333 -4.33301 -43 -13 -89l-26 -144h-21z" />
    <glyph glyph-name="numbersign" unicode="#" horiz-adv-x="500" 
d="M56 -14l46 222h-84v41h91l34 167h-125v39h134l45 222h40l-44 -222h164l48 222h40l-46 -222h83v-39h-90l-35 -167h125v-41h-133l-45 -222h-40l45 222h-166l-46 -222h-41zM150 249h166l35 167h-166z" />
    <glyph glyph-name="dollar" unicode="$" horiz-adv-x="500" 
d="M53 163h21.001c4 -44.667 18.167 -78.834 42.5 -102.501s60.833 -37.834 109.5 -42.501v285c-73.333 45.333 -122.333 85.333 -147 120c-17.333 24.667 -26 55 -26 91c0 40 15 75 45 105s72.667 48 128 54v45h31v-45c26.667 -2 49 -5 67 -9
c9.33301 -2.66699 40.666 -14 93.999 -34v-146h-19c-4 52 -17.333 89.833 -40 113.5s-56.667 37.834 -102 42.501v-248c82 -57.333 134.667 -99.5 158 -126.5s35 -60.833 35 -101.5c0 -44.667 -17 -84.167 -51 -118.5s-81.333 -54.166 -142 -59.499v-62h-31v62
c-30.667 1.33301 -59.167 4.83301 -85.5 10.5s-55.5 15.167 -87.5 28.5v138zM226.001 413v227c-32.667 -4 -57 -14.5 -73 -31.5s-24 -38.167 -24 -63.5c0 -23.333 7.16699 -45.333 21.5 -66s39.5 -42.667 75.5 -66zM257.001 18c24 4 42.667 10.002 56 18.002
c18 11.333 32.333 26.166 43 44.499s16 38.166 16 59.499s-6.5 41.5 -19.5 60.5s-44.833 46.167 -95.5 81.5v-264z" />
    <glyph glyph-name="percent" unicode="%" horiz-adv-x="833" 
d="M680 677l-483 -704h-43l482 704h44zM178 677c44 0 78 -18.168 102 -54.501s36 -78.166 36 -125.499c0 -56.667 -13.667 -100.5 -41 -131.5s-60 -46.5 -98 -46.5c-26 0 -49.667 7.16699 -71 21.5s-38.5 35.5 -51.5 63.5s-19.5 59 -19.5 93s6.5 65.5 19.5 94.5
s30.833 50.5 53.5 64.5s46 21 70 21zM176 649.999c-16.667 0 -31.3311 -9.83203 -43.998 -29.499s-19 -60.5 -19 -122.5c0 -45.333 3.66699 -80 11 -104c5.33301 -18 13.666 -31.667 24.999 -41c7.33301 -6 16 -9 26 -9c15.333 0 28.666 8.33301 39.999 25
c16 25.333 24 67.333 24 126c0 61.333 -8 104.666 -24 129.999c-10 16.667 -23 25 -39 25zM657.003 329c23.333 0 46.5 -7.33398 69.5 -22.001s40.667 -36 53 -64s18.5 -59 18.5 -93c0 -57.333 -13.833 -101.166 -41.5 -131.499s-60.167 -45.5 -97.5 -45.5
c-24 0 -47.167 7.33301 -69.5 22s-39.833 35.5 -52.5 62.5s-19 57.833 -19 92.5s6.33301 66.167 19 94.5s30.167 49.5 52.5 63.5s44.833 21 67.5 21zM658.003 302.999c-16 0 -29.667 -9 -41 -27c-14.667 -22.667 -22 -65.667 -22 -129c0 -58 7.66699 -98.667 23 -122
c10.667 -16.667 24 -25 40 -25c14.667 0 28 9 40 27c15.333 23.333 23 64 23 122c0 61.333 -7.66699 104.333 -23 129c-10.667 16.667 -24 25 -40 25z" />
    <glyph glyph-name="ampersand" unicode="&#x26;" horiz-adv-x="778" 
d="M510 426l205 0.00292969v-18c-28 -2 -48.833 -8.16699 -62.5 -18.5s-34.834 -41.333 -63.501 -93s-60.667 -100.167 -96 -145.5c28.667 -33.333 54.334 -56.833 77.001 -70.5s45.667 -20.5 69 -20.5c22.667 0 41.834 6.16699 57.501 18.5s26.5 30.166 32.5 53.499l19 -13
c-12.667 -46 -32.334 -79.833 -59.001 -101.5s-57.667 -32.5 -93 -32.5c-26.667 0 -53.667 7.16699 -81 21.5s-57.333 38.833 -90 73.5c-40.667 -36 -77.167 -60.833 -109.5 -74.5s-66.833 -20.5 -103.5 -20.5c-54 0 -96.667 14.333 -128 43s-47 62.667 -47 102
s14.167 78.666 42.5 117.999s81.5 80 159.5 122c-15.333 34 -25.833 61.833 -31.5 83.5s-8.5 42.5 -8.5 62.5c0 55.333 20.667 97.666 62 126.999c32 22.667 68.333 34 109 34c38.667 0 70.167 -11.5 94.5 -34.5s36.5 -51.167 36.5 -84.5c0 -34.667 -11.833 -65 -35.5 -91
s-65.5 -54.333 -125.5 -85c41.333 -74 84.666 -141.333 129.999 -202c57.333 68 86 125.667 86 173c0 14.667 -5 28 -15 40c-7.33301 8.66699 -17.666 13.667 -30.999 15v18zM324 414.003c40 18.667 69.999 40.334 89.999 65.001s30 52 30 82
c0 23.333 -7.16699 42.666 -21.5 57.999s-32.166 23 -53.499 23c-28.667 0 -50.167 -9.83301 -64.5 -29.5s-21.5 -39.167 -21.5 -58.5c0 -16 2.66699 -33.833 8 -53.5s16.333 -48.5 33 -86.5zM398.999 108.003c-42.667 58.667 -72.332 101.5 -88.999 128.5
s-35 60.5 -55 100.5c-38.667 -22 -67.834 -46.5 -87.501 -73.5s-29.5 -56.5 -29.5 -88.5c0 -34.667 11.167 -65.167 33.5 -91.5s52.5 -39.5 90.5 -39.5c20.667 0 40.5 4 59.5 12s44.833 25.333 77.5 52z" />
    <glyph glyph-name="quotesingle" unicode="'" horiz-adv-x="180" 
d="M77 392l-26.001 145c-7.33301 40 -11 67 -11 81c0 20.667 4.16699 35.667 12.5 45s19.833 14 34.5 14s26.834 -4.83301 36.501 -14.5s14.5 -22.167 14.5 -37.5c0 -12 -4.33301 -41.667 -13 -89l-26 -144h-22z" />
    <glyph glyph-name="parenleft" unicode="(" horiz-adv-x="333" 
d="M311 -196l0.000976562 -17.998c-49.333 24.667 -90.666 53.667 -123.999 87c-46.667 47.333 -82.667 103 -108 167s-38 130.667 -38 200c0 100.667 24.833 192.667 74.5 276s114.834 142.666 195.501 177.999v-20c-40.667 -22 -73.834 -52.333 -99.501 -91
s-44.834 -87.334 -57.501 -146.001s-19 -120.334 -19 -185.001c0 -69.333 5.33301 -132.666 16 -189.999c8.66699 -44.667 19 -80.5 31 -107.5s28.167 -53.167 48.5 -78.5s47.166 -49.333 80.499 -72z" />
    <glyph glyph-name="parenright" unicode=")" horiz-adv-x="333" 
d="M22 674l-0.00195312 20.001c50 -24 91.333 -52.667 124 -86c46.667 -47.333 82.667 -103 108 -167s38 -130.667 38 -200c0 -101.333 -24.833 -193.5 -74.5 -276.5s-114.834 -142.5 -195.501 -178.5v18c40.667 22.667 73.834 53.167 99.501 91.5s44.834 87 57.501 146
s19 120.5 19 184.5c0 69.333 -5.33301 132.666 -16 189.999c-8.66699 44.667 -19 80.5 -31 107.5s-28.167 53.167 -48.5 78.5s-47.166 49.333 -80.499 72z" />
    <glyph glyph-name="asterisk" unicode="*" horiz-adv-x="500" 
d="M241 510c-1.33301 22 -5.66992 44.333 -13.0029 67c-11.333 32 -17 54 -17 66c0 16.667 4 29.334 12 38.001s17.667 13 29 13c10.667 0 19.667 -4.33301 27 -13s11 -21 11 -37c0 -14.667 -4.33301 -35.167 -13 -61.5s-14 -50.5 -16 -72.5c18 11.333 34.333 25 49 41
c22 26 38.333 42 49 48s21.667 9 33 9c10.667 0 19.667 -3.66699 27 -11s11 -16 11 -26c0 -12 -5.5 -22.667 -16.5 -32s-37.833 -18.666 -80.5 -27.999c-25.333 -6 -46 -12.333 -62 -19c16.667 -8.66699 37.334 -15.334 62.001 -20.001c39.333 -7.33301 65 -16.333 77 -27
s18 -22.334 18 -35.001c0 -10 -3.66699 -18.5 -11 -25.5s-15.666 -10.5 -24.999 -10.5c-10 0 -21 3.33301 -33 10s-28 22 -48 46c-13.333 16 -30 31 -50 45c0.666992 -18.667 4.33398 -39 11.001 -61c12 -38.667 18 -65 18 -79c0 -12.667 -3.83301 -23.5 -11.5 -32.5
s-16.167 -13.5 -25.5 -13.5c-12 0 -22.667 4.66699 -32 14c-7.33301 6.66699 -11 17.667 -11 33s3.83301 34 11.5 56s12.5 37.167 14.5 45.5s3.66699 20.833 5 37.5c-19.333 -12.667 -36 -27 -50 -43c-24 -26.667 -42 -43.667 -54 -51c-8 -4.66699 -16.667 -7 -26 -7
c-11.333 0 -20.833 3.66699 -28.5 11s-11.5 15.666 -11.5 24.999c0 8 3.33301 16.5 10 25.5s16.667 16.5 30 22.5c8.66699 3.33301 28.667 8.33301 60 15c20 4 39.667 10.333 59 19c-17.333 8.66699 -38.333 15.334 -63 20.001c-40 8.66699 -64.667 16.334 -74 23.001
c-14.667 10.667 -22 23.667 -22 39c0 8.66699 3.66699 16.667 11 24s15.666 11 24.999 11c11.333 0 23 -3.33301 35 -10s26.833 -20.334 44.5 -41.001s35.834 -36.667 54.501 -48z" />
    <glyph glyph-name="plus" unicode="+" horiz-adv-x="564" 
d="M261 69v243h-243v41h243v242h39v-242h244v-41h-244v-243h-39z" />
    <glyph glyph-name="comma" unicode="," horiz-adv-x="250" 
d="M54 -167l0.000976562 21.999c33.333 11.333 59.166 28.5 77.499 51.5s27.5 47.5 27.5 73.5c0 6.66699 -1.33301 12 -4 16c-2.66699 2.66699 -5 4 -7 4c-3.33301 0 -11 -3 -23 -9c-6 -3.33301 -12.333 -5 -19 -5c-16 0 -28.667 4.83301 -38 14.5s-14 22.834 -14 39.501
c0 15.333 6 28.833 18 40.5s27 17.5 45 17.5c21.333 0 40.333 -9.33301 57 -28s25 -43.667 25 -75c0 -33.333 -11.667 -64.5 -35 -93.5s-60 -51.833 -110 -68.5z" />
    <glyph glyph-name="hyphen" unicode="-" horiz-adv-x="333" 
d="M41 261h252v-74h-252v74z" />
    <glyph glyph-name="period" unicode="." horiz-adv-x="250" 
d="M125 95c15.333 0 28.168 -5.33301 38.501 -16s15.5 -23.334 15.5 -38.001c0 -15.333 -5.33301 -28.333 -16 -39s-23.334 -16 -38.001 -16s-27.334 5.33301 -38.001 16s-16 23.667 -16 39c0 14.667 5.33301 27.334 16 38.001s23.334 16 38.001 16z" />
    <glyph glyph-name="slash" unicode="/" horiz-adv-x="278" 
d="M280 694l-239 -708h-40l240 708h39z" />
    <glyph glyph-name="zero" unicode="0" horiz-adv-x="500" 
d="M36 327c0 75.333 11.333 140.332 34 194.999s53 95.334 91 122.001c29.333 21.333 59.666 32 90.999 32c50.667 0 96.334 -26 137.001 -78c50 -64 75 -151 75 -261c0 -76.667 -11 -141.834 -33 -195.501s-50.167 -92.667 -84.5 -117s-67.5 -36.5 -99.5 -36.5
c-63.333 0 -116 37.333 -158 112c-35.333 62.667 -53 138.334 -53 227.001zM132 314.999c0 -91.333 11.3311 -165.666 33.998 -222.999c18 -48.667 45.667 -73 83 -73c17.333 0 35.5 7.83301 54.5 23.5s33.167 42.167 42.5 79.5c15.333 56 23 135 23 237
c0 75.333 -8 138.333 -24 189c-11.333 37.333 -26.333 63.666 -45 78.999c-13.333 11.333 -29.666 17 -48.999 17c-22 0 -41.667 -10 -59 -30c-23.333 -27.333 -39.166 -70 -47.499 -128s-12.5 -115 -12.5 -171z" />
    <glyph glyph-name="one" unicode="1" horiz-adv-x="500" 
d="M117 597l161 78.998h16v-559c0 -37.333 1.66699 -60.5 5 -69.5s9.83301 -16 19.5 -21s29.5 -7.83301 59.5 -8.5v-18h-249v18c31.333 0.666992 51.5 3.33398 60.5 8.00098s15.333 11 19 19s5.5 32 5.5 72v357c0 48 -1.66699 79 -5 93
c-2 10.667 -6.16699 18.334 -12.5 23.001s-13.5 7 -21.5 7c-12 0 -28.667 -5 -50 -15z" />
    <glyph glyph-name="two" unicode="2" horiz-adv-x="500" 
d="M458 127l-45.9971 -127.002h-391v18c115.333 104.667 196.333 190.334 243 257.001s70 127.334 70 182.001c0 42 -12.833 76.5 -38.5 103.5s-56.167 40.5 -91.5 40.5c-32.667 0 -62 -9.5 -88 -28.5s-45 -46.833 -57 -83.5h-18c8 60 28.833 106.167 62.5 138.5
s75.5 48.5 125.5 48.5c54 0 99 -17.333 135 -52s54 -75.334 54 -122.001c0 -33.333 -7.66699 -67 -23 -101c-24.667 -52.667 -64 -108.334 -118 -167.001c-80.667 -88.667 -131.334 -142 -152.001 -160h173c35.333 0 60.166 1.33301 74.499 4s27.166 7.83398 38.499 15.501
s21 18.834 29 33.501h18z" />
    <glyph glyph-name="three" unicode="3" horiz-adv-x="500" 
d="M51 536c18.667 44.667 42.501 79.168 71.501 103.501s64.833 36.5 107.5 36.5c53.333 0 94 -17.333 122 -52c21.333 -26 32 -53.333 32 -82c0 -48.667 -30.333 -98.667 -91 -150c40.667 -16 71.5 -38.833 92.5 -68.5s31.5 -64.5 31.5 -104.5
c0 -57.333 -18.333 -107 -55 -149c-47.333 -54.667 -116 -82 -206 -82c-44.667 0 -75 5.5 -91 16.5s-24 23.167 -24 36.5c0 9.33301 3.66699 17.5 11 24.5s16.666 10.5 27.999 10.5c8 0 16 -1.33301 24 -4c6 -1.33301 18.667 -7.16602 38 -17.499s33 -16.5 41 -18.5
c12 -3.33301 24.667 -5 38 -5c33.333 0 62.333 12.833 87 38.5s37 56.167 37 91.5c0 25.333 -5.66699 50.333 -17 75c-8.66699 18 -18 31.667 -28 41c-14 13.333 -33.167 25.333 -57.5 36s-49.5 16 -75.5 16h-15v14c25.333 3.33301 51 12.666 77 27.999
s44.833 33.666 56.5 54.999s17.5 45 17.5 71c0 33.333 -10.5 60.333 -31.5 81s-47.167 31 -78.5 31c-50 0 -92 -27 -126 -81z" />
    <glyph glyph-name="four" unicode="4" horiz-adv-x="500" 
d="M465 244v-69h-89v-175h-80v175h-280v62l307 439h53v-432h89zM296 244v329l-233 -329h233z" />
    <glyph glyph-name="five" unicode="5" horiz-adv-x="500" 
d="M434 662l-38.001 -83h-199l-44 -89c86.667 -12.667 155 -44.667 205 -96c43.333 -44 65 -96 65 -156c0 -34.667 -7 -66.834 -21 -96.501s-31.833 -55 -53.5 -76s-45.5 -37.833 -71.5 -50.5c-37.333 -18 -75.666 -27 -114.999 -27c-40 0 -69 6.83301 -87 20.5
s-27 28.5 -27 44.5c0 9.33301 3.66699 17.5 11 24.5s16.666 10.5 27.999 10.5c8.66699 0 16.167 -1.33301 22.5 -4s17.166 -9.33398 32.499 -20.001c24.667 -16.667 49.334 -25 74.001 -25c38 0 71.5 14.333 100.5 43s43.5 63.667 43.5 105c0 40 -12.833 77.333 -38.5 112
s-61.167 61.334 -106.5 80.001c-35.333 14.667 -83.666 23.334 -144.999 26.001l127 257h237z" />
    <glyph glyph-name="six" unicode="6" horiz-adv-x="500" 
d="M448 676l-0.000976562 -17.999c-42.667 -4.66699 -77.667 -13.334 -105 -26.001s-54.166 -32.167 -80.499 -58.5s-48.333 -55.666 -66 -87.999s-32.167 -70.833 -43.5 -115.5c46.667 32 93.667 48 141 48c45.333 0 84.5 -18.167 117.5 -54.5s49.5 -83.166 49.5 -140.499
c0 -55.333 -16.667 -106 -50 -152c-40 -55.333 -93.333 -83 -160 -83c-45.333 0 -83.666 15 -114.999 45c-62 58.667 -93 134.334 -93 227.001c0 59.333 11.833 115.666 35.5 168.999s57.667 100.666 102 141.999s86.666 69.166 126.999 83.499s77.833 21.5 112.5 21.5h28z
M144.999 334.001c-6 -44 -9 -79.333 -9 -106c0 -31.333 5.66699 -65.333 17 -102s28.666 -65.667 51.999 -87c16 -15.333 36 -23 60 -23c28.667 0 54.167 13.333 76.5 40s33.5 64.667 33.5 114c0 55.333 -11.167 103.333 -33.5 144s-53.833 61 -94.5 61
c-12 0 -25.167 -2.5 -39.5 -7.5s-35.166 -16.167 -62.499 -33.5z" />
    <glyph glyph-name="seven" unicode="7" horiz-adv-x="500" 
d="M101 662h355v-18l-221 -658h-55l198 597h-182c-36.667 0 -63 -4.66699 -79 -14c-27.333 -14.667 -49.333 -37.667 -66 -69l-14 5z" />
    <glyph glyph-name="eight" unicode="8" horiz-adv-x="500" 
d="M192 333c-52.667 43.333 -86.502 78.001 -101.502 104.001s-22.5 53 -22.5 81c0 43.333 16.5 80.5 49.5 111.5s77.167 46.5 132.5 46.5c53.333 0 96.333 -14.5 129 -43.5s49 -62.167 49 -99.5c0 -24.667 -8.83301 -49.834 -26.5 -75.501s-54.167 -55.834 -109.5 -90.501
c56.667 -44.667 94.334 -79.667 113.001 -105c24.667 -33.333 37 -68.333 37 -105c0 -46.667 -17.667 -86.5 -53 -119.5s-81.666 -49.5 -138.999 -49.5c-63.333 0 -112.333 19.667 -147 59c-28 32 -42 66.667 -42 104c0 29.333 9.83301 58.333 29.5 87
s53.5 60.334 101.5 95.001zM268.998 386.001c38.667 34.667 63.167 62.333 73.5 83s15.5 43.667 15.5 69c0 34 -9.5 60.667 -28.5 80s-45.167 29 -78.5 29s-60.333 -9.5 -81 -28.5s-31 -41.5 -31 -67.5c0 -16.667 4.33301 -33.5 13 -50.5s20.667 -33.167 36 -48.5z
M214.998 315c-27.333 -22.667 -47.499 -47.501 -60.499 -74.501s-19.5 -56.167 -19.5 -87.5c0 -42 11.5 -75.5 34.5 -100.5s52.167 -37.5 87.5 -37.5s63.666 9.83301 84.999 29.5s32 43.834 32 72.501c0 23.333 -6.33301 44.333 -19 63c-23.333 34 -70 79 -140 135z" />
    <glyph glyph-name="nine" unicode="9" horiz-adv-x="500" 
d="M53 -14l-0.00195312 18c42 0.666992 81.333 10.5 118 29.5s72 52.333 106 100s57.667 100.167 71 157.5c-51.333 -33.333 -97.666 -50 -138.999 -50c-46.667 0 -86.5 18 -119.5 54s-49.5 83.667 -49.5 143c0 58 16.333 109.667 49 155c40 55.333 92.333 83 157 83
c54.667 0 101.334 -22.667 140.001 -68c47.333 -55.333 71 -124 71 -206c0 -73.333 -18 -141.833 -54 -205.5s-86.333 -116.5 -151 -158.5c-52.667 -34.667 -109.667 -52 -171 -52h-28zM354.998 327c6 42 9.00293 75.668 9.00293 101.001c0 32 -5.33301 66.167 -16 102.5
s-25.834 64.333 -45.501 84s-42.167 29.5 -67.5 29.5c-28.667 0 -54 -13 -76 -39s-33 -64.667 -33 -116c0 -68.667 14.667 -122.334 44 -161.001c21.333 -28 47.333 -42 78 -42c15.333 0 33.166 3.5 53.499 10.5s38.166 17.167 53.499 30.5z" />
    <glyph glyph-name="colon" unicode=":" horiz-adv-x="278" 
d="M141 461c15.333 0 28.166 -5.33301 38.499 -16s15.5 -23.334 15.5 -38.001c0 -15.333 -5.16699 -28.166 -15.5 -38.499s-23.166 -15.5 -38.499 -15.5c-14.667 0 -27.334 5.16699 -38.001 15.5s-16 23.166 -16 38.499c0 14.667 5.33301 27.334 16 38.001
s23.334 16 38.001 16zM140 95c15.333 0 28.333 -5.33301 39 -16s16 -23.334 16 -38.001c0 -15.333 -5.33301 -28.333 -16 -39s-23.667 -16 -39 -16c-14.667 0 -27.334 5.33301 -38.001 16s-16 23.667 -16 39c0 14.667 5.33301 27.334 16 38.001s23.334 16 38.001 16z" />
    <glyph glyph-name="semicolon" unicode=";" horiz-adv-x="278" 
d="M138 461c14.667 0 27.334 -5.16699 38.001 -15.5s16 -22.833 16 -37.5c0 -15.333 -5.33301 -28.166 -16 -38.499s-23.334 -15.5 -38.001 -15.5c-15.333 0 -28.333 5.16699 -39 15.5s-16 23.166 -16 38.499c0 14.667 5.33301 27.167 16 37.5s23.667 15.5 39 15.5zM69 -167
l0.000976562 21.999c34 11.333 60.167 28.5 78.5 51.5s27.5 47.5 27.5 73.5c0 6.66699 -1.66699 12 -5 16c-2 2.66699 -4 4 -6 4c-4 0 -12 -3 -24 -9c-6 -3.33301 -12 -5 -18 -5c-16 0 -28.833 4.83301 -38.5 14.5s-14.5 22.834 -14.5 39.501
c0 15.333 6.16699 28.833 18.5 40.5s27.166 17.5 44.499 17.5c22 0 41.333 -9.33301 58 -28s25 -43.667 25 -75c0 -33.333 -11.667 -64.5 -35 -93.5s-60.333 -51.833 -111 -68.5z" />
    <glyph glyph-name="less" unicode="&#x3c;" horiz-adv-x="564" 
d="M18 345l525 227v-42l-452 -197l452 -198v-44l-525 230v24z" />
    <glyph glyph-name="equal" unicode="=" horiz-adv-x="564" 
d="M18 431h527v-40h-527v40zM18 272h527v-40h-527v40z" />
    <glyph glyph-name="greater" unicode="&#x3e;" horiz-adv-x="564" 
d="M543 319l-525 -228v42l453 197l-453 198v44l525 -229v-24z" />
    <glyph glyph-name="question" unicode="?" horiz-adv-x="444" 
d="M222 156l-20 -0.00390625c2 41.333 7 75.333 15 102s24.667 64 50 112c19.333 36.667 31.833 64.834 37.5 84.501s8.5 39.834 8.5 60.501c0 41.333 -10.833 74.166 -32.5 98.499s-48.5 36.5 -80.5 36.5c-28.667 0 -51.167 -6.66699 -67.5 -20s-24.5 -28 -24.5 -44
c0 -12 5 -26.667 15 -44s15 -30.666 15 -39.999c0 -12 -3.83301 -22 -11.5 -30s-16.834 -12 -27.501 -12c-13.333 0 -25.666 6.83301 -36.999 20.5s-17 32.5 -17 56.5c0 36.667 15.833 69.167 47.5 97.5s74.5 42.5 128.5 42.5c66.667 0 116 -19.333 148 -58
c23.333 -28.667 35 -60.667 35 -96c0 -23.333 -5.33301 -47.5 -16 -72.5s-30.667 -54.5 -60 -88.5c-47.333 -53.333 -76.333 -91.166 -87 -113.499s-17 -53.166 -19 -92.499zM215 95.9961c15.333 0 28.333 -5.33301 39 -16s16 -23.667 16 -39
c0 -14.667 -5.5 -27.334 -16.5 -38.001s-23.833 -16 -38.5 -16c-15.333 0 -28.166 5.33301 -38.499 16s-15.5 23.334 -15.5 38.001c0 15.333 5.16699 28.333 15.5 39s23.166 16 38.499 16z" />
    <glyph glyph-name="at" unicode="@" horiz-adv-x="921" 
d="M687 468l-56.9971 -194.999c-20.667 -72.667 -33.334 -118.834 -38.001 -138.501s-7 -35.5 -7 -47.5c0 -10 3.5 -18.667 10.5 -26s15.833 -11 26.5 -11c23.333 0 51.666 12 84.999 36s62 62.667 86 116s36 109 36 167c0 55.333 -13.5 106.666 -40.5 153.999
s-65 83.5 -114 108.5s-103.167 37.5 -162.5 37.5c-75.333 0 -145.166 -19.833 -209.499 -59.5s-115.333 -97 -153 -172s-56.5 -152.833 -56.5 -233.5c0 -74.667 16.5 -142.667 49.5 -204s79.5 -107.666 139.5 -138.999s124.667 -47 194 -47c85.333 0 162.666 23 231.999 69
s122.666 113 159.999 201h28c-28.667 -89.333 -81.667 -161.666 -159 -216.999s-165.333 -83 -264 -83c-77.333 0 -149.166 18.333 -215.499 55s-118 88.667 -155 156s-55.5 141.333 -55.5 222c0 86 20.167 166.167 60.5 240.5s97 132.333 170 174s150.167 62.5 231.5 62.5
c67.333 0 128.166 -13.833 182.499 -41.5s95.666 -68.334 123.999 -122.001s42.5 -110.5 42.5 -170.5c0 -59.333 -13.333 -118.333 -40 -177s-60.5 -101.334 -101.5 -128.001s-83.833 -40 -128.5 -40c-24.667 0 -43.167 5.83301 -55.5 17.5s-18.5 28.167 -18.5 49.5
c0 18 2.66699 42 8 72c-48 -58.667 -86.5 -96.5 -115.5 -113.5s-54.5 -25.5 -76.5 -25.5c-23.333 0 -43.833 10.333 -61.5 31s-26.5 48 -26.5 82c0 47.333 15.333 100.333 46 159s71.334 106.334 122.001 143.001c37.333 27.333 71 41 101 41
c21.333 0 39.333 -5.66699 54 -17s24.667 -28.333 30 -51l16 54zM516.003 448.001c-24.667 0 -49.334 -12.998 -74.001 -38.998c-36.667 -37.333 -68 -88.333 -94 -153c-19.333 -46.667 -29 -84.334 -29 -113.001c0 -20.667 5.83301 -37.334 17.5 -50.001s24.5 -19 38.5 -19
c18.667 0 38.5 7.16699 59.5 21.5s42.833 36.333 65.5 66s39.334 59.5 50.001 89.5c18 52 27 94 27 126c0 22 -5.83301 39.333 -17.5 52s-26.167 19 -43.5 19z" />
    <glyph glyph-name="A" unicode="A" horiz-adv-x="722" 
d="M458 222l-257 0.00292969l-45 -105c-10.667 -25.333 -16 -44.333 -16 -57c0 -10.667 4.66699 -19.834 14 -27.501s30 -12.5 62 -14.5v-18h-208v18c27.333 4.66699 45.333 11 54 19c16 16 34.333 47.667 55 95l233 545h17l230 -551c18.667 -44 35.5 -72.5 50.5 -85.5
s36.167 -20.5 63.5 -22.5v-18h-261v18c26 1.33301 43.667 5.66602 53 12.999s14 16.666 14 27.999c0 14 -6.33301 36.333 -19 67zM444 258.003l-112 267l-116 -267h228z" />
    <glyph glyph-name="B" unicode="B" horiz-adv-x="667" 
d="M462 338c46 -10 80.333 -25.667 103 -47c31.333 -30 47 -66.667 47 -110c0 -32.667 -10.333 -64 -31 -94s-49.167 -52 -85.5 -66s-91.833 -21 -166.5 -21h-312v18h25c27.333 0 47 8.66699 59 26c7.33301 12 11 36.333 11 73v428c0 40.667 -4.66699 66.667 -14 78
c-12.667 14 -31.334 21 -56.001 21h-25v18h286c53.333 0 96 -4 128 -12c48.667 -11.333 86 -32 112 -62s39 -64.333 39 -103c0 -32.667 -10.167 -62.167 -30.5 -88.5s-50.166 -45.833 -89.499 -58.5zM206 364c12 -2 25.832 -3.66602 41.499 -4.99902s32.5 -2 50.5 -2
c48 0 83.833 5.16699 107.5 15.5s41.834 26.166 54.501 47.499s19 44.333 19 69c0 38.667 -15.667 71.667 -47 99s-77.333 41 -138 41c-32.667 0 -62 -3.33301 -88 -10v-255zM205.999 48.001c38 -8.66699 75.334 -12.999 112.001 -12.999c58.667 0 103.5 13.167 134.5 39.5
s46.5 59.166 46.5 98.499c0 25.333 -7 50 -21 74s-36.833 42.833 -68.5 56.5s-70.834 20.5 -117.501 20.5c-20 0 -37.167 -0.333008 -51.5 -1s-25.833 -2 -34.5 -4v-271z" />
    <glyph glyph-name="C" unicode="C" horiz-adv-x="667" 
d="M602 677l14.998 -224.998h-15c-20 67.333 -48.833 115.833 -86.5 145.5s-82.5 44.5 -134.5 44.5c-44 0 -83.833 -11.167 -119.5 -33.5s-63.667 -57.833 -84 -106.5s-30.5 -109.334 -30.5 -182.001c0 -60 9.66699 -112 29 -156s48.333 -77.667 87 -101s82.667 -35 132 -35
c42.667 0 80.5 9.16699 113.5 27.5s69.167 54.833 108.5 109.5l15 -10c-32.667 -58.667 -71.167 -101.667 -115.5 -129s-97.166 -41 -158.499 -41c-109.333 0 -194 40.667 -254 122c-45.333 60.667 -68 132 -68 214c0 66 14.833 126.667 44.5 182s70.5 98.166 122.5 128.499
s108.667 45.5 170 45.5c48 0 95.333 -11.667 142 -35c13.333 -7.33301 23 -11 29 -11c8.66699 0 16.334 3.33301 23.001 10c8.66699 8.66699 14.667 20.667 18 36h17z" />
    <glyph glyph-name="D" unicode="D" horiz-adv-x="722" 
d="M17 0v18.001h25c28 0 48 9 60 27c6.66699 10.667 10 34.667 10 72v428c0 41.333 -4.33301 67.333 -13 78c-12.667 14 -31.667 21 -57 21h-25v18h270c98.667 0 173.834 -11.167 225.501 -33.5s93.167 -59.833 124.5 -112.5s47 -113.334 47 -182.001
c0 -92 -28 -168.667 -84 -230c-62.667 -69.333 -158.334 -104 -287.001 -104h-296zM206 48.001c41.333 -9.33301 75.999 -14 103.999 -14c75.333 0 138 26.5 188 79.5s75 125.167 75 216.5s-25 163.333 -75 216s-114 79 -192 79c-29.333 0 -62.666 -4.66699 -99.999 -14
v-563z" />
    <glyph glyph-name="E" unicode="E" horiz-adv-x="611" 
d="M209 626v-261.998h145c38 0 63.333 5.66699 76 17c17.333 15.333 26.666 41.666 27.999 78.999h19v-230h-19c-4 32 -8.33301 52.667 -13 62c-6 11.333 -15.667 20.333 -29 27s-34 10 -62 10h-145v-219c0 -29.333 1.33301 -47.166 4 -53.499s7.16699 -11.333 13.5 -15
s18.833 -5.5 37.5 -5.5h112c37.333 0 64.5 2.66699 81.5 8s33.167 15.666 48.5 30.999c20.667 20 41.334 50.333 62.001 91h20l-57 -166h-510v18h23c15.333 0 30 3.66699 44 11c10.667 5.33301 17.834 13.166 21.501 23.499s5.5 31.833 5.5 64.5v430c0 42 -4 68 -12 78
c-12 12.667 -31.667 19 -59 19h-23v18h510l7 -145h-19c-6.66699 34.667 -14.167 58.5 -22.5 71.5s-20.833 23.167 -37.5 30.5c-12.667 4.66699 -35.334 7 -68.001 7h-182z" />
    <glyph glyph-name="F" unicode="F" horiz-adv-x="556" 
d="M205 626l-0.000976562 -260h120c28 0 48.333 6 61 18s21.334 36.333 26.001 73h18v-225h-18c-0.666992 26 -4.16699 45 -10.5 57s-15.166 21 -26.499 27s-28 9 -50 9h-120v-208c0 -33.333 2 -55.333 6 -66c3.33301 -8 10 -15 20 -21c14.667 -8 29.667 -12 45 -12h24v-18
h-284v18h24c27.333 0 47 8 59 24c8 10.667 12 35.667 12 75v428c0 33.333 -2.33301 55.333 -7 66c-2.66699 8.66699 -9.33398 15.667 -20.001 21c-14 8 -28.667 12 -44 12h-24v18h493l6 -145h-17c-8.66699 30.667 -18.5 53.167 -29.5 67.5s-24.833 24.833 -41.5 31.5
s-42 10 -76 10h-146z" />
    <glyph glyph-name="G" unicode="G" horiz-adv-x="722" 
d="M614 677l16.999 -208.999h-17c-17.333 52 -39.666 91.333 -66.999 118c-39.333 38 -90 57 -152 57c-84 0 -148 -33.333 -192 -100c-37.333 -56.667 -56 -123.667 -56 -201c0 -63.333 12.333 -121 37 -173s56.667 -90.167 96 -114.5s80 -36.5 122 -36.5
c24 0 47.5 3.16699 70.5 9.5s45.167 15.5 66.5 27.5v191c0 33.333 -2.66699 55.166 -8 65.499s-13.166 18.166 -23.499 23.499s-28.833 8 -55.5 8v18h256v-18h-12c-25.333 0 -42.666 -8.66699 -51.999 -26c-6.66699 -12 -10 -35.667 -10 -71v-203
c-37.333 -20 -74.333 -34.667 -111 -44s-77.334 -14 -122.001 -14c-128 0 -225 41 -291 123c-50 61.333 -75 132.333 -75 213c0 58 14 113.667 42 167c33.333 63.333 79 112.333 137 147c48.667 28 106 42 172 42c24 0 45.833 -1.83301 65.5 -5.5s47.5 -12.167 83.5 -25.5
c18 -7.33301 30.333 -11 37 -11c6 0 11.167 2.83301 15.5 8.5s7.16602 16.834 8.49902 33.501h18z" />
    <glyph glyph-name="H" unicode="H" horiz-adv-x="722" 
d="M206 355l307.001 0.00195312v189c0 34 -2 56.333 -6 67c-3.33301 8.66699 -10.333 15.667 -21 21c-14 8 -28.667 12 -44 12h-24v18h284v-18h-24c-15.333 0 -30 -3.66699 -44 -11c-10.667 -5.33301 -17.834 -13.333 -21.501 -24s-5.5 -32.334 -5.5 -65.001v-427
c0 -33.333 2 -55.333 6 -66c3.33301 -8 10 -15 20 -21c14.667 -8 29.667 -12 45 -12h24v-18h-284v18h24c26.667 0 46.334 8 59.001 24c8 10.667 12 35.667 12 75v202h-307v-202c0 -33.333 2 -55.333 6 -66c3.33301 -8 10 -15 20 -21c14 -8 29 -12 45 -12h24v-18h-284v18h24
c27.333 0 47 8 59 24c8 10.667 12 35.667 12 75v427c0 34 -2.33301 56.333 -7 67c-2.66699 8.66699 -9.33398 15.667 -20.001 21c-14 8 -28.667 12 -44 12h-24v18h284v-18h-24c-16 0 -31 -3.66699 -45 -11c-10 -5.33301 -16.833 -13.333 -20.5 -24
s-5.5 -32.334 -5.5 -65.001v-189z" />
    <glyph glyph-name="I" unicode="I" horiz-adv-x="333" 
d="M309 18v-18h-284v18h23c27.333 0 47.333 8 60 24c8 10.667 12 35.667 12 75v428c0 33.333 -2.33301 55.333 -7 66c-3.33301 8.66699 -10 15.667 -20 21c-14 8 -29 12 -45 12h-23v18h284v-18h-24c-27.333 0 -47 -8 -59 -24c-8.66699 -10.667 -13 -35.667 -13 -75v-428
c0 -33.333 2.33301 -55.333 7 -66c3.33301 -8 10 -15 20 -21c14 -8 29 -12 45 -12h24z" />
    <glyph glyph-name="J" unicode="J" horiz-adv-x="389" 
d="M100 644l0.000976562 18h283v-18h-24c-26.667 0 -46.334 -8 -59.001 -24c-7.33301 -10.667 -11 -35.667 -11 -75v-324c0 -50 -5.5 -90.333 -16.5 -121s-29.833 -57.5 -56.5 -80.5s-59 -34.5 -97 -34.5c-30.667 0 -54.667 7.5 -72 22.5s-26 32.5 -26 52.5
c0 15.333 4 27.333 12 36c10.667 10 23 15 37 15c10.667 0 20.167 -3.5 28.5 -10.5s18.833 -25.167 31.5 -54.5c7.33301 -17.333 17 -26 29 -26c8.66699 0 16.834 5.33301 24.501 16s11.5 29.667 11.5 57v452c0 33.333 -2.33301 55.333 -7 66
c-2.66699 8.66699 -9.33398 15.667 -20.001 21c-14 8 -28.667 12 -44 12h-24z" />
    <glyph glyph-name="K" unicode="K" horiz-adv-x="722" 
d="M299 367l244.001 -242.001c40 -40.667 74.167 -68.167 102.5 -82.5s56.5 -22.5 84.5 -24.5v-18h-314v18c18.667 0 32.167 3.16699 40.5 9.5s12.5 13.5 12.5 21.5s-1.66699 15 -5 21s-13.333 17.333 -30 34l-229 227v-214c0 -33.333 2 -55.333 6 -66
c3.33301 -8 10.333 -15 21 -21c14 -8 28.667 -12 44 -12h23v-18h-282v18h23c27.333 0 47.333 8 60 24c7.33301 10.667 11 35.667 11 75v428c0 33.333 -2 55.666 -6 66.999c-3.33301 8 -10 14.667 -20 20c-14.667 8 -29.667 12 -45 12h-23v18h282v-18h-23
c-15.333 0 -30 -3.66699 -44 -11c-10 -5.33301 -17 -13.166 -21 -23.499s-6 -31.833 -6 -64.5v-203c6.66699 6.66699 29 27.334 67 62.001c96.667 88.667 155 148 175 178c8.66699 12.667 13 24 13 34c0 7.33301 -3.33301 13.833 -10 19.5s-18 8.5 -34 8.5h-16v18h244v-18
c-14.667 0 -27.834 -1.83301 -39.501 -5.5s-26 -10.667 -43 -21s-37.833 -26.833 -62.5 -49.5c-7.33301 -6.66699 -40.333 -40 -99 -100z" />
    <glyph glyph-name="L" unicode="L" horiz-adv-x="611" 
d="M573 183l16.001 -3l-56 -180h-513v18h25c28 0 48 9 60 27c6.66699 10.667 10 35 10 73v427c0 41.333 -4.33301 67.333 -13 78c-12.667 14 -31.667 21 -57 21h-25v18h300v-18c-35.333 0.666992 -60 -2.5 -74 -9.5s-23.667 -15.667 -29 -26s-8 -35.166 -8 -74.499v-416
c0 -27.333 2.66699 -46 8 -56c4 -6.66699 10 -11.667 18 -15s33.333 -5 76 -5h48c51.333 0 87.166 3.66699 107.499 11s39 20.666 56 39.999s33.833 49.333 50.5 90z" />
    <glyph glyph-name="M" unicode="M" horiz-adv-x="889" 
d="M409 0l-256 557.002v-442c0 -40.667 4.66699 -66 14 -76c12 -14 31 -21 57 -21h23v-18h-230v18h23c28 0 48 8.33301 60 25c6.66699 10.667 10 34.667 10 72v432c0 29.333 -3 50.666 -9 63.999c-4.66699 9.33301 -13.167 17.166 -25.5 23.499s-31.833 9.5 -58.5 9.5v18
h187l240 -518l237 518h187v-18h-23c-28 0 -48 -8.33301 -60 -25c-7.33301 -10.667 -11 -34.667 -11 -72v-432c0 -40.667 4.66699 -66 14 -76c12 -14 31 -21 57 -21h23v-18h-281v18h23c28.667 0 48.667 8.33301 60 25c7.33301 10.667 11 34.667 11 72v442l-256 -557h-16z" />
    <glyph glyph-name="N" unicode="N" horiz-adv-x="722" 
d="M-13 662l179.999 -0.000976562l404 -496v381c0 40.667 -4.33301 66.334 -13 77.001c-12 13.333 -31.333 20 -58 20h-22v18h230v-18h-23c-28 0 -48 -8.33301 -60 -25c-7.33301 -10.667 -11 -34.667 -11 -72v-558h-17l-437 533v-407c0 -40.667 4.33301 -66 13 -76
c12.667 -14 31.667 -21 57 -21h24v-18h-231v18h23c28.667 0 48.667 8.33301 60 25c7.33301 10.667 11 34.667 11 72v460c-19.333 22.667 -33.833 37.5 -43.5 44.5s-24.167 13.833 -43.5 20.5c-9.33301 2.66699 -23.666 4 -42.999 4v18z" />
    <glyph glyph-name="O" unicode="O" horiz-adv-x="722" 
d="M366 677c86 0 160.5 -32.6689 223.5 -98.002s94.5 -146.666 94.5 -243.999c0 -100.667 -31.833 -184.167 -95.5 -250.5s-140.5 -99.5 -230.5 -99.5c-91.333 0 -168 32.333 -230 97s-93 148.334 -93 251.001c0 105.333 36 191.333 108 258c62 57.333 136.333 86 223 86z
M356 641.998c-58.667 0 -106 -21.999 -142 -65.999c-44.667 -54.667 -67 -135 -67 -241c0 -108 23 -191 69 -249c36 -44 83 -66 141 -66c62 0 113.333 24.167 154 72.5s61 124.833 61 229.5c0 113.333 -22.333 197.666 -67 252.999c-36 44.667 -85.667 67 -149 67z" />
    <glyph glyph-name="P" unicode="P" horiz-adv-x="556" 
d="M205 310l0.00195312 -193c0 -41.333 4.66699 -67 14 -77c12 -14.667 30.667 -22 56 -22h25v-18h-283v18h25c27.333 0 47.333 9 60 27c6 10.667 9 34.667 9 72v428c0 41.333 -4.33301 67.333 -13 78c-12.667 14 -31.334 21 -56.001 21h-25v18h242
c59.333 0 106.166 -6.16699 140.499 -18.5s63.166 -32.833 86.499 -61.5s35 -63 35 -103c0 -54 -17.833 -98 -53.5 -132s-86.167 -51 -151.5 -51c-16 0 -33.167 1.16699 -51.5 3.5s-38.166 5.83301 -59.499 10.5zM205.002 338c17.333 -3.33301 32.6689 -5.83301 46.002 -7.5
s24.666 -2.5 33.999 -2.5c34 0 63.333 13.167 88 39.5s37 60.166 37 101.499c0 28.667 -5.83301 55.334 -17.5 80.001s-28.334 43.167 -50.001 55.5s-46.167 18.5 -73.5 18.5c-16.667 0 -38 -3.33301 -64 -10v-275z" />
    <glyph glyph-name="Q" unicode="Q" horiz-adv-x="722" 
d="M440 -7c33.333 -57.333 69.333 -99.502 108 -126.502s82.667 -42.5 132 -46.5v-16c-45.333 2 -93.5 11.167 -144.5 27.5s-99.333 39 -145 68s-85.167 60.167 -118.5 93.5c-46.667 18.667 -83.667 38.667 -111 60c-40 31.333 -71 70 -93 116s-33 100.667 -33 164
c0 98.667 32.167 180.667 96.5 246s141.833 98 232.5 98c86.667 0 161.667 -32.833 225 -98.5s95 -148.167 95 -247.5c0 -81.333 -22.5 -152.666 -67.5 -213.999s-103.833 -102.666 -176.5 -123.999zM358 639.998c-58.667 0 -106.33 -21.334 -142.997 -64.001
c-45.333 -52.667 -68 -133.667 -68 -243c0 -107.333 23 -190 69 -248c36 -44.667 83.333 -67 142 -67c61.333 0 110.666 22.333 147.999 67c44 52.667 66 130.334 66 233.001c0 79.333 -12 146 -36 200c-18.667 42 -43.334 72.833 -74.001 92.5s-65.334 29.5 -104.001 29.5z
" />
    <glyph glyph-name="R" unicode="R" horiz-adv-x="667" 
d="M676 0l-176.999 -0.00195312l-224 310c-16.667 -0.666992 -30.334 -1 -41.001 -1h-13.5c-5 0 -9.83301 0.333008 -14.5 1v-193c0 -41.333 4.33301 -67 13 -77c12.667 -14.667 31.334 -22 56.001 -22h26v-18h-284v18h25c28 0 48 9 60 27c6.66699 10.667 10 34.667 10 72
v428c0 41.333 -4.33301 67.333 -13 78c-12.667 14 -31.667 21 -57 21h-25v18h241c70.667 0 122.667 -5.16699 156 -15.5s61.666 -29.166 84.999 -56.499s35 -60 35 -98c0 -40.667 -13.333 -76 -40 -106s-67.667 -51.333 -123 -64l136 -190
c31.333 -43.333 58.333 -72.166 81 -86.499s52 -23.5 88 -27.5v-18zM206.001 339.998h16h11c63.333 0 111 13.667 143 41s48 62 48 104c0 41.333 -13 75 -39 101s-60.333 39 -103 39c-18.667 0 -44 -3 -76 -9v-276z" />
    <glyph glyph-name="S" unicode="S" horiz-adv-x="556" 
d="M458 677l0.00292969 -228.997h-18c-5.33301 44 -15.666 79 -30.999 105s-37 46.667 -65 62s-57 23 -87 23c-33.333 0 -61.166 -10.333 -83.499 -31s-33.5 -44 -33.5 -70c0 -20.667 7 -39.334 21 -56.001c20 -24 68 -56.333 144 -97c62 -33.333 104.333 -58.833 127 -76.5
s40 -38.667 52 -63s18 -49.5 18 -75.5c0 -50 -19.333 -93.167 -58 -129.5s-88.667 -54.5 -150 -54.5c-19.333 0 -37.333 1.33301 -54 4c-10 2 -31 8 -63 18s-52 15 -60 15c-8.66699 0 -15.334 -2.33301 -20.001 -7s-8 -14.667 -10 -30h-18v227h18
c8.66699 -47.333 20.167 -82.833 34.5 -106.5s36.166 -43.334 65.499 -59.001s61.666 -23.5 96.999 -23.5c40.667 0 72.834 10.667 96.501 32s35.5 46.666 35.5 75.999c0 16.667 -4.5 33.334 -13.5 50.001s-23.167 32 -42.5 46c-12.667 10 -47.334 30.833 -104.001 62.5
s-96.834 57 -120.501 76s-41.834 39.833 -54.501 62.5s-19 47.667 -19 75c0 47.333 18.333 88.166 55 122.499s83 51.5 139 51.5c35.333 0 72.666 -8.66699 111.999 -26c18.667 -8 31.667 -12 39 -12c8 0 14.833 2.5 20.5 7.5s9.83398 15.167 12.501 30.5h18z" />
    <glyph glyph-name="T" unicode="T" horiz-adv-x="611" 
d="M579 662l7 -154.999h-19c-3.33301 27.333 -8 46.666 -14 57.999c-10 19.333 -23.5 33.5 -40.5 42.5s-39.167 13.5 -66.5 13.5h-93v-506c0 -40.667 4.33301 -66 13 -76c12.667 -14 31.667 -21 57 -21h23v-18h-280v18h23c28 0 48 8.33301 60 25
c6.66699 10.667 10 34.667 10 72v506h-79c-31.333 0 -53.333 -2.33301 -66 -7c-17.333 -6.66699 -32 -18.667 -44 -36s-19 -41 -21 -71h-19l8 155h541z" />
    <glyph glyph-name="U" unicode="U" horiz-adv-x="722" 
d="M477 644v17.998h234v-18h-24c-26.667 0 -47 -11 -61 -33c-6.66699 -10 -10 -33.333 -10 -70v-269c0 -66 -6.5 -117.333 -19.5 -154s-38.833 -68.167 -77.5 -94.5s-91.334 -39.5 -158.001 -39.5c-72 0 -126.667 12.667 -164 38s-64 59 -80 101
c-10 29.333 -15 83.666 -15 162.999v259c0 40.667 -5.66699 67.334 -17 80.001s-29.666 19 -54.999 19h-25v18h287v-18h-26c-27.333 0 -46.666 -8.66699 -57.999 -26c-8.66699 -11.333 -13 -35.666 -13 -72.999v-289c0 -25.333 2.33301 -54.666 7 -87.999
s13.334 -59.333 26.001 -78s30.5 -34 53.5 -46s51.5 -18 85.5 -18c43.333 0 82.166 9.5 116.499 28.5s57.666 43.167 69.999 72.5s18.5 79.333 18.5 150v268c0 41.333 -4.33301 67.333 -13 78c-12.667 14 -31.667 21 -57 21h-25z" />
    <glyph glyph-name="V" unicode="V" horiz-adv-x="722" 
d="M710 662l-0.000976562 -17.999c-23.333 -4 -41 -11.333 -53 -22c-17.333 -16 -32.666 -40.667 -45.999 -74l-231 -563h-18l-248 571c-12.667 29.333 -21.667 47 -27 53c-8 10.667 -18 18.834 -30 24.501s-28 9.16699 -48 10.5v18h270v-18
c-30.667 -2.66699 -50.5 -7.83398 -59.5 -15.501s-13.5 -17.167 -13.5 -28.5c0 -16.667 7.66699 -42.334 23 -77.001l168 -388l156 384c15.333 37.333 23 63.333 23 78c0 9.33301 -4.66699 18.333 -14 27s-25.333 15 -48 19c-1.33301 0 -4 0.333008 -8 1v18h204z" />
    <glyph glyph-name="W" unicode="W" horiz-adv-x="944" 
d="M936 662l-0.000976562 -18c-17.333 0 -31.333 -3.16699 -42 -9.5s-21 -17.833 -31 -34.5c-6 -11.333 -16 -38.333 -30 -81l-185 -534h-20l-150 423l-150 -423h-18l-197 550c-14.667 40.667 -24 64.667 -28 72c-6 12.667 -14.667 22 -26 28s-26.666 9 -45.999 9v18h245
v-18h-11c-17.333 0 -30.666 -3.83301 -39.999 -11.5s-14 -17.167 -14 -28.5s7.33301 -37.666 22 -78.999l130 -371l110 316l-19 55l-16 45c-6.66699 16 -14.334 30.333 -23.001 43c-4 6 -9.33301 11 -16 15c-8 6 -16 10.333 -24 13c-6 2 -15.667 3 -29 3v18h257v-18h-17
c-18 0 -31.333 -3.83301 -40 -11.5s-13 -18.167 -13 -31.5c0 -16.667 7.33301 -45.667 22 -87l127 -360l126 365c14.667 40 22 68 22 84c0 7.33301 -2.5 14.166 -7.5 20.499s-10.833 10.833 -17.5 13.5c-12.667 4.66699 -29 7 -49 7v18h198z" />
    <glyph glyph-name="X" unicode="X" horiz-adv-x="722" 
d="M408 367l142.003 -211.995c39.333 -58.667 68.666 -95.667 87.999 -111s43.333 -24 72 -26v-18h-284v18c19.333 0.666992 33.333 2.66699 42 6c7.33301 2.66699 13.166 7 17.499 13s6.5 12.333 6.5 19c0 7.33301 -1.66699 14.666 -5 21.999
c-2 5.33301 -11 19.666 -27 42.999l-112 170l-139 -178c-14.667 -18.667 -23.334 -31.167 -26.001 -37.5s-4 -12.833 -4 -19.5c0 -10.667 4.33301 -19.334 13 -26.001s25.334 -10.667 50.001 -12v-18h-235v18c16.667 2 31 5.33301 43 10c20.667 8.66699 40 20.167 58 34.5
s38.667 36.166 62 65.499l157 198l-131 191c-35.333 51.333 -65.333 85.166 -90 101.499s-53 24.833 -85 25.5v18h306v-18c-26 -0.666992 -43.833 -4.83398 -53.5 -12.501s-14.5 -16.167 -14.5 -25.5c0 -12 7.66699 -29.333 23 -52l102 -152l117 149
c14 17.333 22.5 29.333 25.5 36s4.5 13.334 4.5 20.001s-2 12.667 -6 18c-4.66699 6.66699 -10.667 11.5 -18 14.5s-23 4.5 -47 4.5v18h235v-18c-18.667 -0.666992 -33.667 -3.66699 -45 -9c-17.333 -7.33301 -33.333 -17.333 -48 -30s-35.334 -36 -62.001 -70z" />
    <glyph glyph-name="Y" unicode="Y" horiz-adv-x="722" 
d="M477 662h230.999v-18h-13c-8.66699 0 -21.167 -3.66699 -37.5 -11s-31.166 -18 -44.499 -32s-29.666 -37 -48.999 -69l-160 -251v-166c0 -40.667 4.66699 -66 14 -76c12.667 -14 32.334 -21 59.001 -21h21v-18h-281v18h23c28 0 48 8.33301 60 25
c7.33301 10.667 11 34.667 11 72v156l-182 278c-21.333 32.667 -35.833 53 -43.5 61s-23.5 17.667 -47.5 29c-6.66699 3.33301 -16.334 5 -29.001 5v18h283v-18h-14c-15.333 0 -29.5 -3.5 -42.5 -10.5s-19.5 -17.833 -19.5 -32.5c0 -12 10 -33 30 -63l138 -214l130 204
c19.333 30.667 29 53.667 29 69c0 8.66699 -2.33301 16.667 -7 24s-11.334 13 -20.001 17s-21.667 6 -39 6v18z" />
    <glyph glyph-name="Z" unicode="Z" horiz-adv-x="611" 
d="M575 662l-434.998 -621.998h272c41.333 0 73.166 9.16699 95.499 27.5s42.166 55.166 59.499 110.499l16 -3l-31 -175h-539v18l424 605h-211c-35.333 0 -61 -3.83301 -77 -11.5s-28 -18.834 -36 -33.501s-15.667 -41.667 -23 -81h-18l13 165h490z" />
    <glyph glyph-name="bracketleft" unicode="[" horiz-adv-x="333" 
d="M297 -198h-215v875h215v-38h-142v-799h142v-38z" />
    <glyph glyph-name="backslash" unicode="\" horiz-adv-x="278" 
d="M41 694l239 -708h-39l-240 708h40z" />
    <glyph glyph-name="bracketright" unicode="]" horiz-adv-x="333" 
d="M37 677h214v-876h-214v39h141v799h-141v38z" />
    <glyph glyph-name="asciicircum" unicode="^" horiz-adv-x="469" 
d="M243 676l208 -350h-45l-171 286l-171 -286h-46l211 350h14z" />
    <glyph glyph-name="underscore" unicode="_" horiz-adv-x="500" 
d="M509 -216h-517v41h517v-41z" />
    <glyph glyph-name="grave" unicode="`" horiz-adv-x="333" 
d="M58 679h109l51 -169h-17z" />
    <glyph glyph-name="a" unicode="a" horiz-adv-x="444" 
d="M285 64c-46 -35.333 -75 -55.667 -87 -61c-17.333 -8 -36 -12 -56 -12c-30.667 0 -56 10.5 -76 31.5s-30 48.833 -30 83.5c0 22 4.66699 41 14 57c13.333 22 36.5 42.667 69.5 62s88.167 43 165.5 71v18c0 44.667 -7.16699 75.334 -21.5 92.001s-34.833 25 -61.5 25
c-20.667 0 -37 -5.66699 -49 -17c-12.667 -11.333 -19 -24 -19 -38l1 -28c0 -15.333 -3.83301 -27 -11.5 -35s-17.5 -12 -29.5 -12s-21.833 4.16699 -29.5 12.5s-11.5 19.833 -11.5 34.5c0 28 14.333 53.667 43 77s68.667 35 120 35c40 0 72.667 -6.66699 98 -20
c19.333 -10 33.333 -25.667 42 -47c6 -14 9 -42.667 9 -86v-152c0 -42.667 0.833008 -68.834 2.5 -78.501s4.33398 -16 8.00098 -19s8.16699 -4.5 13.5 -4.5c4.66699 0 9 1 13 3c7.33301 4 20.666 16 39.999 36v-28c-36.667 -48.667 -71.667 -73 -105 -73
c-16 0 -28.667 5.5 -38 16.5s-14 29.833 -14 56.5zM285 95.999l-0.000976562 171.001c-49.333 -20 -81.333 -34 -96 -42c-25.333 -14 -43.5 -28.833 -54.5 -44.5s-16.5 -32.834 -16.5 -51.501c0 -23.333 7 -42.833 21 -58.5s30 -23.5 48 -23.5
c24.667 0 57.334 16.333 98.001 49z" />
    <glyph glyph-name="b" unicode="b" horiz-adv-x="500" 
d="M154 370c43.333 60 89.9971 89.999 139.997 89.999c46 0 86 -19.5 120 -58.5s51 -92.5 51 -160.5c0 -79.333 -26.333 -143.333 -79 -192c-45.333 -42 -95.666 -63 -150.999 -63c-26 0 -52.5 4.83301 -79.5 14.5s-54.5 23.834 -82.5 42.501v463
c0 51.333 -1.16699 82.833 -3.5 94.5s-6.16602 19.5 -11.499 23.5s-11.666 6 -18.999 6c-9.33301 0 -21 -2.33301 -35 -7l-6 17l134 54h22v-324zM153.997 338.999l-0.000976562 -268c16.667 -16 33.834 -28.167 51.501 -36.5s35.834 -12.5 54.501 -12.5
c29.333 0 56.833 16.333 82.5 49s38.5 80 38.5 142c0 57.333 -12.833 101.333 -38.5 132s-54.834 46 -87.501 46c-17.333 0 -34.333 -4.33301 -51 -13c-13.333 -6.66699 -30 -19.667 -50 -39z" />
    <glyph glyph-name="c" unicode="c" horiz-adv-x="444" 
d="M411 170c-12 -58.667 -35.499 -104.001 -70.499 -136.001s-73.833 -48 -116.5 -48c-51.333 0 -95.833 21.333 -133.5 64s-56.5 100.334 -56.5 173.001c0 70.667 21 127.834 63 171.501s92.333 65.5 151 65.5c43.333 0 79.166 -11.5 107.499 -34.5
s42.5 -47.167 42.5 -72.5c0 -12.667 -3.83301 -22.667 -11.5 -30s-18.834 -11 -33.501 -11c-19.333 0 -33.666 6 -42.999 18c-6 6.66699 -9.83301 19.667 -11.5 39s-8.16699 34 -19.5 44s-27.333 15 -48 15c-32 0 -58 -12 -78 -36c-26.667 -32 -40 -74.333 -40 -127
c0 -53.333 13.167 -100.5 39.5 -141.5s61.833 -61.5 106.5 -61.5c32 0 60.667 11 86 33c18 15.333 35.333 42.666 52 81.999z" />
    <glyph glyph-name="d" unicode="d" horiz-adv-x="500" 
d="M347 50c-22 -22.667 -43.3311 -38.999 -63.998 -48.999s-43 -15 -67 -15c-48.667 0 -91.334 20.5 -128.001 61.5s-55 93.5 -55 157.5s20.167 122.667 60.5 176s92.5 80 156.5 80c39.333 0 71.666 -12.667 96.999 -38v83c0 51.333 -1.16699 82.833 -3.5 94.5
s-6.16602 19.5 -11.499 23.5s-12 6 -20 6s-19 -2.33301 -33 -7l-7 17l134 54h22v-517c0 -52 1.16699 -83.833 3.5 -95.5s6.16602 -19.834 11.499 -24.501s11.666 -7 18.999 -7c8.66699 0 20.334 3 35.001 9l5 -17l-132 -56h-23v64zM347.002 84.001l0.00195312 231.001
c-2 22 -7.83301 42.167 -17.5 60.5s-22.5 32.166 -38.5 41.499s-31.667 14 -47 14c-28.667 0 -54.334 -13 -77.001 -39c-29.333 -34 -44 -83.333 -44 -148c0 -66 14.167 -116.5 42.5 -151.5s60.166 -52.5 95.499 -52.5c30 0 58.667 14.667 86 44z" />
    <glyph glyph-name="e" unicode="e" horiz-adv-x="444" 
d="M106 279c0 -66.667 16.3311 -118.667 48.998 -156c32.667 -38 71 -57 115 -57c28.667 0 53.834 8 75.501 24s39.834 43.667 54.501 83l16 -10c-7.33301 -44.667 -27.333 -85.334 -60 -122.001s-74 -55 -124 -55c-53.333 0 -99.166 21 -137.499 63s-57.5 98.333 -57.5 169
c0 76.667 19.667 136.334 59 179.001s88.666 64 147.999 64c50 0 91.167 -16.5 123.5 -49.5s48.5 -77.167 48.5 -132.5h-310zM105.998 307h206.999c-1.33301 28.667 -4.66602 49 -9.99902 61c-8 18 -20 32.167 -36 42.5s-33 15.5 -51 15.5
c-26.667 0 -50.667 -10.5 -72 -31.5s-34 -50.167 -38 -87.5z" />
    <glyph glyph-name="f" unicode="f" horiz-adv-x="333" 
d="M206 412l-0.00195312 -294.001c0 -41.333 4.66699 -67.666 14 -78.999c12 -14 28 -21 48 -21h41v-18h-267v18h20c12.667 0 24.334 3.16699 35.001 9.5s18 15 22 26s6 32.5 6 64.5v294h-86v35h86v30c0 44 7.16699 81.5 21.5 112.5s36.333 56 66 75
s62.834 28.5 99.501 28.5c34 0 65.333 -11 94 -33c19.333 -14.667 29 -31 29 -49c0 -10 -4.33301 -19.333 -13 -28s-17.667 -13 -27 -13c-8 0 -16.167 2.66699 -24.5 8s-18.5 17 -30.5 35s-23 30 -33 36s-21.333 9 -34 9c-14.667 0 -27.167 -4 -37.5 -12
s-17.833 -20.333 -22.5 -37s-7 -60 -7 -130v-32h115v-35h-115z" />
    <glyph glyph-name="g" unicode="g" horiz-adv-x="500" 
d="M151 163c-27.333 13.333 -48.332 32 -62.999 56s-22 50.333 -22 79c0 44.667 16.667 82.834 50 114.501s76 47.5 128 47.5c42.667 0 79.667 -10.333 111 -31h95c14 0 22.167 -0.333008 24.5 -1s3.83301 -2 4.5 -4c2 -3.33301 3 -8.66602 3 -15.999
c0 -8 -1 -13.667 -3 -17c-0.666992 -2 -2.16699 -3.5 -4.5 -4.5s-10.5 -1.5 -24.5 -1.5h-58c18 -23.333 27 -53.333 27 -90c0 -41.333 -16 -76.833 -48 -106.5s-74.667 -44.5 -128 -44.5c-22.667 0 -45.334 3.33301 -68.001 10c-14.667 -12.667 -24.5 -23.667 -29.5 -33
s-7.5 -17 -7.5 -23s2.66699 -11.5 8 -16.5s16 -8.83301 32 -11.5c8.66699 -1.33301 31.334 -2.33301 68.001 -3c67.333 -2 110.666 -4.33301 129.999 -7c30.667 -4 55 -15.167 73 -33.5s27 -40.833 27 -67.5c0 -36.667 -17.333 -71.334 -52 -104.001
c-50.667 -47.333 -116.667 -71 -198 -71c-63.333 0 -116.666 14.333 -159.999 43c-24 16 -36 32.667 -36 50c0 8 1.66699 16 5 24c5.33301 12 16.666 28.667 33.999 50c2.66699 3.33301 19.334 21 50.001 53c-16.667 10 -28.5 19 -35.5 27s-10.5 17 -10.5 27
c0 11.333 4.66699 24.666 14 39.999s30.666 37 63.999 65zM236.001 437c-24 0 -44.1689 -9.66797 -60.502 -29.001s-24.5 -48.666 -24.5 -87.999c0 -51.333 11 -91.333 33 -120c16.667 -21.333 38.334 -32 65.001 -32c24.667 0 44.834 9.33301 60.501 28
s23.5 47.667 23.5 87c0 52 -11 92.667 -33 122c-16.667 21.333 -38 32 -64 32zM145.999 -0.000976562c-15.333 -16.667 -26.835 -32.166 -34.502 -46.499s-11.5 -27.5 -11.5 -39.5c0 -15.333 9.33301 -29 28 -41c32.667 -20 79.667 -30 141 -30
c58.667 0 101.834 10.333 129.501 31s41.5 42.667 41.5 66c0 16.667 -8 28.667 -24 36c-17.333 7.33301 -51 11.666 -101 12.999c-73.333 2 -129.666 5.66699 -168.999 11z" />
    <glyph glyph-name="h" unicode="h" horiz-adv-x="500" 
d="M163 694l0.00292969 -327c36 40 64.5 65.5 85.5 76.5s42.167 16.5 63.5 16.5c25.333 0 47.166 -7 65.499 -21s31.833 -35.667 40.5 -65c6 -21.333 9 -59.666 9 -114.999v-158c0 -28 2.33301 -47.333 7 -58c3.33301 -8 8.83301 -14.167 16.5 -18.5s22.167 -6.5 43.5 -6.5
v-18h-220v18h10c20.667 0 35.167 3.16699 43.5 9.5s14.166 15.5 17.499 27.5c0.666992 5.33301 1 20.666 1 45.999v158c0 49.333 -2.5 81.5 -7.5 96.5s-13 26.333 -24 34s-24.5 11.5 -40.5 11.5s-32.5 -4.16699 -49.5 -12.5s-37.5 -25.5 -61.5 -51.5v-236
c0 -30.667 1.66699 -49.667 5 -57s9.66602 -13.5 18.999 -18.5s25.333 -7.5 48 -7.5v-18h-222v18c20 0 35.667 3 47 9c6.66699 3.33301 12 9.5 16 18.5s6 27.5 6 55.5v405c0 51.333 -1.33301 82.833 -4 94.5s-6.5 19.5 -11.5 23.5s-11.833 6 -20.5 6
c-6.66699 0 -17.667 -2.33301 -33 -7l-7 17l134 54h23z" />
    <glyph glyph-name="i" unicode="i" horiz-adv-x="278" 
d="M145 694c14 0 25.667 -4.66699 35 -14s14 -21 14 -35c0 -13.333 -4.66699 -25 -14 -35s-21 -15 -35 -15c-13.333 0 -25 5 -35 15s-15 21.667 -15 35c0 14 4.83301 25.667 14.5 35s21.5 14 35.5 14zM186 460l0.000976562 -359.002c0 -28 2 -46.667 6 -56
s10 -16.166 18 -20.499s22.333 -6.5 43 -6.5v-18h-217v18c22 0 36.667 2 44 6s13.166 11 17.499 21s6.5 28.667 6.5 56v172c0 48.667 -1.33301 80.334 -4 95.001c-2 10 -5.5 17.167 -10.5 21.5s-11.833 6.5 -20.5 6.5s-19.667 -2.66699 -33 -8l-7 18l135 54h22z" />
    <glyph glyph-name="j" unicode="j" horiz-adv-x="278" 
d="M145 695c14 0 25.833 -4.83301 35.5 -14.5s14.5 -21.5 14.5 -35.5s-4.83301 -25.833 -14.5 -35.5s-21.5 -14.5 -35.5 -14.5s-25.833 4.83301 -35.5 14.5s-14.5 21.5 -14.5 35.5s4.83301 25.833 14.5 35.5s21.5 14.5 35.5 14.5zM187 460l-0.00195312 -450
c0 -76 -16.333 -132.667 -49 -170s-75 -56 -127 -56c-30 0 -52.167 5.33301 -66.5 16s-21.5 21.667 -21.5 33c0 12 4 22 12 30s17.333 12 28 12c8.66699 0 17.334 -2 26.001 -6c6 -2.66699 16.833 -11 32.5 -25s28.834 -21 39.501 -21c8 0 15.667 3 23 9s12.833 16 16.5 30
s5.5 44.667 5.5 92v318c0 49.333 -1.33301 81 -4 95c-2.66699 10.667 -6.5 18.167 -11.5 22.5s-11.5 6.5 -19.5 6.5c-9.33301 0 -20.333 -2.66699 -33 -8l-7 18l135 54h21z" />
    <glyph glyph-name="k" unicode="k" horiz-adv-x="500" 
d="M164 694l0.000976562 -445l113 104c24 22 38 36 42 42c2.66699 4 4 8 4 12c0 6.66699 -2.66699 12.334 -8 17.001s-14 7.33398 -26 8.00098v15h194v-15c-26.667 -0.666992 -48.834 -4.83398 -66.501 -12.501s-37.167 -21.167 -58.5 -40.5l-115 -106l115 -145
c32 -40 53.333 -65.333 64 -76c16 -15.333 29.667 -25.333 41 -30c8.66699 -2.66699 23 -4 43 -4v-18h-217v18c12 0 20.167 1.66699 24.5 5s6.5 8.33301 6.5 15c0 7.33301 -6.33301 19.333 -19 36l-137 175v-148c0 -29.333 2 -48.5 6 -57.5s9.66699 -15.5 17 -19.5
s23.666 -6 48.999 -6v-18h-228v18c22.667 0 40 2.66699 52 8c6.66699 3.33301 11.667 8.66602 15 15.999c5.33301 11.333 8 30 8 56v407c0 52 -1.16699 83.833 -3.5 95.5s-6.16602 19.667 -11.499 24s-12.333 6.5 -21 6.5c-6.66699 0 -16.667 -2.66699 -30 -8l-9 17l133 54
h23z" />
    <glyph glyph-name="l" unicode="l" horiz-adv-x="278" 
d="M185 694v-593.001c0 -28 2 -46.5 6 -55.5s10.333 -15.833 19 -20.5s24.334 -7 47.001 -7v-18h-219v18c20.667 0 34.667 2 42 6s13.166 11 17.499 21s6.5 28.667 6.5 56v406c0 50.667 -1.16699 81.834 -3.5 93.501s-6 19.5 -11 23.5s-11.5 6 -19.5 6
s-18.667 -2.33301 -32 -7l-8 17l133 54h22z" />
    <glyph glyph-name="m" unicode="m" horiz-adv-x="778" 
d="M164 365c32.667 32.667 52.001 51.334 58.001 56.001c14.667 12.667 30.334 22.334 47.001 29.001s33.334 10 50.001 10c28 0 52.167 -8 72.5 -24s33.833 -39.667 40.5 -71c33.333 39.333 61.666 65 84.999 77s47 18 71 18s45.167 -6 63.5 -18s32.833 -32 43.5 -60
c7.33301 -18.667 11 -48.334 11 -89.001v-192c0 -28 2 -47.333 6 -58c3.33301 -6.66699 9.5 -12.5 18.5 -17.5s23.167 -7.5 42.5 -7.5v-18h-220v18h9c19.333 0 34.333 3.66699 45 11c7.33301 5.33301 12.666 13.666 15.999 24.999c1.33301 5.33301 2 21 2 47v192
c0 36.667 -4.33301 62.667 -13 78c-12.667 20.667 -33 31 -61 31c-17.333 0 -34.666 -4.33301 -51.999 -13s-38.333 -24.667 -63 -48l-1 -6l1 -21v-213c0 -30.667 1.66699 -49.667 5 -57s9.66602 -13.5 18.999 -18.5s25.333 -7.5 48 -7.5v-18h-226v18
c24.667 0 41.667 2.83301 51 8.5s16 14.5 20 26.5c1.33301 5.33301 2 21.333 2 48v192c0 36.667 -5.33301 63 -16 79c-14.667 20.667 -34.667 31 -60 31c-18 0 -35.333 -4.66699 -52 -14c-27.333 -14 -48.333 -30 -63 -48v-240c0 -29.333 2 -48.333 6 -57
s10 -15.167 18 -19.5s24.333 -6.5 49 -6.5v-18h-221v18c20 0 34.167 2.16699 42.5 6.5s14.5 11.333 18.5 21s6 28.167 6 55.5v171c0 49.333 -1.33301 81 -4 95c-2 10.667 -5.5 18.167 -10.5 22.5s-11.833 6.5 -20.5 6.5s-19.334 -2.66699 -32.001 -8l-8 18l135 54h21v-95z
" />
    <glyph glyph-name="n" unicode="n" horiz-adv-x="500" 
d="M162 366c52 62.667 102 93.999 150 93.999c24 0 44.833 -6 62.5 -18s31.834 -32 42.501 -60c6.66699 -19.333 10 -49.333 10 -90v-191c0 -28 2.33301 -47.333 7 -58c3.33301 -8 9 -14.167 17 -18.5s23 -6.5 45 -6.5v-18h-222v18h10c20.667 0 35.167 3.16699 43.5 9.5
s14.166 15.5 17.499 27.5c1.33301 4.66699 2 20 2 46v183c0 40.667 -5.33301 70.167 -16 88.5s-28.667 27.5 -54 27.5c-38.667 0 -77 -21 -115 -63v-236c0 -30 1.66699 -48.667 5 -56c4.66699 -9.33301 11 -16.166 19 -20.499s24 -6.5 48 -6.5v-18h-221v18h10
c22.667 0 38 5.66699 46 17s12 33.333 12 66v166c0 54 -1.16699 86.833 -3.5 98.5s-6 19.667 -11 24s-11.833 6.5 -20.5 6.5c-9.33301 0 -20.333 -2.66699 -33 -8l-7 18l135 54h21v-94z" />
    <glyph glyph-name="o" unicode="o" horiz-adv-x="500" 
d="M250 460c68 0 122.333 -25.665 163 -76.998c34.667 -44 52 -94.333 52 -151c0 -40 -9.5 -80.5 -28.5 -121.5s-45.333 -72 -79 -93s-71.167 -31.5 -112.5 -31.5c-67.333 0 -121 27 -161 81c-33.333 45.333 -50 96 -50 152c0 41.333 10.167 82.166 30.5 122.499
s47 70.166 80 89.499s68.167 29 105.5 29zM235 429.002c-17.333 0 -34.668 -5.16602 -52.001 -15.499s-31.333 -28.333 -42 -54s-16 -58.834 -16 -99.501c0 -64.667 12.833 -120.667 38.5 -168s59.834 -71 102.501 -71c31.333 0 57.333 13 78 39s31 70.667 31 134
c0 79.333 -17.333 142 -52 188c-22.667 31.333 -52 47 -88 47z" />
    <glyph glyph-name="p" unicode="p" horiz-adv-x="500" 
d="M-1 403l138.004 54.999h18v-104c23.333 39.333 46.666 66.833 69.999 82.5s47.666 23.5 72.999 23.5c45.333 0 83 -17.333 113 -52c36.667 -43.333 55 -99.333 55 -168c0 -77.333 -22.333 -141.333 -67 -192c-36 -41.333 -81.667 -62 -137 -62c-24 0 -45 3.66699 -63 11
c-12.667 4.66699 -27.334 14.334 -44.001 29.001v-136c0 -30.667 2 -50.167 6 -58.5s10.5 -15 19.5 -20s25.833 -7.5 50.5 -7.5v-18h-234v18h12c18 0 33.333 3.33301 46 10c6 4 10.667 10 14 18s5 28.333 5 61v422c0 29.333 -1.33301 47.833 -4 55.5
s-6.83398 13.5 -12.501 17.5s-13.167 6 -22.5 6c-8 0 -18 -2.33301 -30 -7zM155.004 324.999l-0.00195312 -167c0 -36 1.66699 -59.667 5 -71c4.66699 -18.667 15.834 -35.167 33.501 -49.5s39.834 -21.5 66.501 -21.5c32.667 0 59 12.667 79 38c26.667 33.333 40 80 40 140
c0 68 -15 120.667 -45 158c-20.667 25.333 -45.334 38 -74.001 38c-16 0 -31.667 -4 -47 -12c-11.333 -6 -30.666 -23.667 -57.999 -53z" />
    <glyph glyph-name="q" unicode="q" horiz-adv-x="500" 
d="M427 460v-574.998c0 -28.667 2 -47 6 -55s10.167 -14.333 18.5 -19s24.5 -7 48.5 -7v-18h-226v18h10c18 0 31.667 2.66699 41 8c6.66699 3.33301 12 9.66602 16 18.999s6 27.333 6 54v193c-30 -35.333 -56 -59.5 -78 -72.5s-45 -19.5 -69 -19.5
c-43.333 0 -82 19.667 -116 59s-51 92.333 -51 159c0 75.333 22.5 136.833 67.5 184.5s99.167 71.5 162.5 71.5c18.667 0 35.834 -2.5 51.501 -7.5s29.5 -12.833 41.5 -23.5c19.333 9.33301 37.666 19.666 54.999 30.999h16zM347 108.002l-0.000976562 210
c0 24.667 -3.16699 44 -9.5 58s-17.666 25.833 -33.999 35.5s-34.833 14.5 -55.5 14.5c-36.667 0 -68 -15.5 -94 -46.5s-39 -77.833 -39 -140.5c0 -60 13.333 -105.667 40 -137s58.667 -47 96 -47c19.333 0 36.5 4.16699 51.5 12.5s29.833 21.833 44.5 40.5z" />
    <glyph glyph-name="r" unicode="r" horiz-adv-x="333" 
d="M162 460l0.000976562 -99.9951c37.333 66.667 75.666 100 114.999 100c18 0 32.833 -5.33301 44.5 -16s17.5 -23.334 17.5 -38.001c0 -12.667 -4.16699 -23.334 -12.5 -32.001s-18.5 -13 -30.5 -13c-11.333 0 -24 5.66699 -38 17s-24.333 17 -31 17
c-6 0 -12.333 -3.33301 -19 -10c-14.667 -13.333 -30 -35.333 -46 -66v-215c0 -24.667 3 -43.334 9 -56.001c4.66699 -8.66699 12.334 -15.834 23.001 -21.501s26 -8.5 46 -8.5v-18h-229v18c22.667 0 39.667 3.33301 51 10c8 5.33301 13.667 13.666 17 24.999c2 6 3 22 3 48
v173c0 52 -1.16699 83 -3.5 93s-6.33301 17.333 -12 22s-12.834 7 -21.501 7c-10 0 -21.333 -2.66699 -34 -8l-5 18l136 54h20z" />
    <glyph glyph-name="s" unicode="s" horiz-adv-x="389" 
d="M320 460v-151.997h-16c-12 48 -27.667 80.667 -47 98s-44 26 -74 26c-23.333 0 -42 -6 -56 -18s-21 -25.333 -21 -40c0 -18.667 5.33301 -34.334 16 -47.001c10 -13.333 30.667 -27.666 62 -42.999l71 -34c66 -32.667 99 -75.334 99 -128.001
c0 -40.667 -15.333 -73.5 -46 -98.5s-65 -37.5 -103 -37.5c-27.333 0 -58.666 5 -93.999 15c-10.667 3.33301 -19.667 5 -27 5s-13 -4.33301 -17 -13h-16v160h16c9.33301 -46 26.833 -80.5 52.5 -103.5s54.5 -34.5 86.5 -34.5c22 0 40.167 6.66699 54.5 20
s21.5 29.333 21.5 48c0 22 -8 40.667 -24 56s-47.5 34.666 -94.5 57.999s-77.833 44.666 -92.5 63.999c-14.667 18.667 -22 42 -22 70c0 36.667 12.667 67.334 38 92.001s58 37 98 37c17.333 0 38.666 -3.66699 63.999 -11c16 -4.66699 27 -7 33 -7
c5.33301 0 9.33301 1.16699 12 3.5s6 7.16602 10 14.499h16z" />
    <glyph glyph-name="t" unicode="t" horiz-adv-x="278" 
d="M161 594v-147h105v-34h-105v-290c0 -28.667 4.16699 -48.167 12.5 -58.5s19.166 -15.5 32.499 -15.5c10.667 0 21 3.33301 31 10s17.667 16.667 23 30h19c-11.333 -32 -27.333 -56 -48 -72s-42 -24 -64 -24c-15.333 0 -30.166 4.16699 -44.499 12.5
s-24.833 20.166 -31.5 35.499s-10 39 -10 71v301h-71v16c18 7.33301 36.333 19.5 55 36.5s35.334 37.167 50.001 60.5c7.33301 12.667 17.666 35.334 30.999 68.001h15z" />
    <glyph glyph-name="u" unicode="u" horiz-adv-x="500" 
d="M423 447l-0.00195312 -270.997c0 -51.333 1.33301 -82.833 4 -94.5s6.66699 -19.834 12 -24.501s11.666 -7 18.999 -7c10 0 21.333 3 34 9l7 -17l-134 -56h-22v95c-38.667 -41.333 -68 -67.5 -88 -78.5s-41.333 -16.5 -64 -16.5c-25.333 0 -47.166 7.33301 -65.499 22
s-31 33.334 -38 56.001s-10.5 55 -10.5 97v199c0 21.333 -2.33301 36.166 -7 44.499s-11.5 14.666 -20.5 18.999s-25.167 6.16602 -48.5 5.49902v18h157v-299c0 -42 7.16699 -69.5 21.5 -82.5s31.833 -19.5 52.5 -19.5c14 0 29.833 4.5 47.5 13.5s38.834 25.833 63.501 50.5
v253c0 25.333 -4.66699 42.5 -14 51.5s-28.666 13.833 -57.999 14.5v18h152z" />
    <glyph glyph-name="v" unicode="v" horiz-adv-x="500" 
d="M8 447l211.003 -0.00292969v-18h-14c-12.667 0 -22.334 -3 -29.001 -9s-10 -14.333 -10 -25c0 -11.333 3.33301 -25 10 -41l104 -247l105 257c7.33301 18 11 31.667 11 41c0 4.66699 -1.33301 8.66699 -4 12c-3.33301 4.66699 -7.83301 7.83398 -13.5 9.50098
s-16.834 2.5 -33.501 2.5v18h146v-18c-17.333 -1.33301 -29 -4.66602 -35 -9.99902c-12 -10 -22.333 -26.333 -31 -49l-159 -384h-20l-160 378c-6.66699 17.333 -13.334 29.833 -20.001 37.5s-15 14.167 -25 19.5c-5.33301 2.66699 -16.333 5.33398 -33 8.00098v18z" />
    <glyph glyph-name="w" unicode="w" horiz-adv-x="722" 
d="M6 447l187.998 -0.00292969v-18c-17.333 -1.33301 -28.666 -4.33301 -33.999 -9s-8 -11.667 -8 -21c0 -10 2.66699 -22.333 8 -37l96 -257l96 209l-25 66c-8 20 -18.333 33.667 -31 41c-7.33301 4.66699 -20.666 7.33398 -39.999 8.00098v18h213v-18
c-23.333 -0.666992 -40 -4.66699 -50 -12c-6.66699 -5.33301 -10 -13.666 -10 -24.999c0 -6.66699 1.33301 -13.334 4 -20.001l102 -257l94 247c6.66699 18 10 32 10 42c0 6.66699 -3.16699 12.334 -9.5 17.001s-18.833 7.33398 -37.5 8.00098v18h141v-18
c-28.667 -4 -49.667 -23 -63 -57l-149 -386h-20l-112 286l-130 -286h-18l-144 376c-9.33301 24 -18.5 40.167 -27.5 48.5s-23.5 14.5 -43.5 18.5v18z" />
    <glyph glyph-name="x" unicode="x" horiz-adv-x="500" 
d="M13 447l211 -0.00195312v-18c-13.333 0 -22.833 -2.16699 -28.5 -6.5s-8.5 -10.5 -8.5 -18.5c0 -7.33301 6 -19.333 18 -36c3.33301 -5.33301 8.66602 -13.333 15.999 -24l31 -51l37 51c23.333 32 35 52.333 35 61c0 6.66699 -2.66699 12.334 -8 17.001s-14.333 7 -27 7
v18h151v-18c-15.333 -0.666992 -29 -5 -41 -13c-16 -11.333 -38 -35.333 -66 -72l-61 -82l112 -160c27.333 -39.333 46.833 -63 58.5 -71s26.834 -12.333 45.501 -13v-18h-211v18c14.667 0 26 3 34 9c6 4.66699 9 10.667 9 18c0 8 -10.333 27 -31 57l-65 96l-72 -96
c-22 -29.333 -33 -47 -33 -53c0 -7.33301 3.66699 -14.166 11 -20.499s18.333 -9.83301 33 -10.5v-18h-146v18c11.333 1.33301 21.333 5.33301 30 12c12.667 9.33301 33.667 33.333 63 72l94 125l-85 123c-24 34.667 -42.667 56.5 -56 65.5s-30 13.5 -50 13.5v18z" />
    <glyph glyph-name="y" unicode="y" horiz-adv-x="500" 
d="M6 447h207.999v-18h-10c-14.667 0 -25.667 -3.16699 -33 -9.5s-11 -14.166 -11 -23.499c0 -12.667 5.33301 -30.334 16 -53.001l109 -225l100 247c6 13.333 9 26.333 9 39c0 6 -1.33301 10.333 -4 13c-2.66699 4 -6.66699 7 -12 9s-15 3 -29 3v18h145v-18
c-12 -1.33301 -21.167 -3.83301 -27.5 -7.5s-13.5 -11.167 -21.5 -22.5c-3.33301 -4 -9 -16.333 -17 -37l-182 -446c-17.333 -43.333 -40.333 -76.166 -69 -98.499s-56 -33.5 -82 -33.5c-19.333 0 -35.166 5.5 -47.499 16.5s-18.5 23.833 -18.5 38.5
c0 13.333 4.5 24.166 13.5 32.499s21.167 12.5 36.5 12.5c10.667 0 25.334 -3.33301 44.001 -10c13.333 -5.33301 21.333 -8 24 -8c10 0 20.833 5 32.5 15s23.167 29.667 34.5 59l32 78l-161 337c-4.66699 10 -12.334 22.667 -23.001 38c-8 11.333 -14.667 19 -20 23
c-7.33301 4.66699 -19.333 9 -36 13v18z" />
    <glyph glyph-name="z" unicode="z" horiz-adv-x="444" 
d="M420 137l-4.99707 -137h-395v18l297 395h-147c-31.333 0 -51.833 -2 -61.5 -6s-17.834 -11.667 -24.501 -23c-8.66699 -16.667 -13.667 -37 -15 -61h-19l3 124h375v-18l-300 -396h163c34 0 57.167 2.83301 69.5 8.5s22.166 15.5 29.499 29.5
c5.33301 10.667 9.66602 32.667 12.999 66h17z" />
    <glyph glyph-name="braceleft" unicode="{" horiz-adv-x="480" 
d="M411 -199l0.000976562 -16.9961c-54.667 7.33301 -99 29.333 -133 66s-51 77.334 -51 122.001c0 23.333 3.83301 50.666 11.5 81.999s11.5 55.333 11.5 72c0 24 -10 46.167 -30 66.5s-47.333 32.5 -82 36.5v21c34.667 4 62 16.167 82 36.5s30 42.5 30 66.5
c0 16.667 -3.83301 40.5 -11.5 71.5s-11.5 58.5 -11.5 82.5c0 44 17 84.5 51 121.5s78.333 58.833 133 65.5v-17c-38 -8.66699 -66 -23.334 -84 -44.001s-27 -43.667 -27 -69c0 -18.667 3.66699 -43.834 11 -75.501s11 -58.5 11 -80.5c0 -32.667 -12 -64.5 -36 -95.5
s-60 -54.833 -108 -71.5c47.333 -17.333 83.166 -41.833 107.499 -73.5s36.5 -63.834 36.5 -96.501c0 -22 -3.66699 -48.833 -11 -80.5s-11 -56.834 -11 -75.501c0 -25.333 9 -48.333 27 -69s46 -35.667 84 -45z" />
    <glyph glyph-name="bar" unicode="|" horiz-adv-x="200" 
d="M119 694v-910h-40v910h40z" />
    <glyph glyph-name="braceright" unicode="}" horiz-adv-x="480" 
d="M86 677v16.9961c54.667 -6.66699 99 -28.334 133 -65.001s51 -77.667 51 -123c0 -23.333 -3.66699 -50.5 -11 -81.5s-11 -54.833 -11 -71.5c0 -24 9.83301 -46.167 29.5 -66.5s46.834 -32.5 81.501 -36.5v-21c-34.667 -4 -61.834 -16.167 -81.501 -36.5
s-29.5 -42.5 -29.5 -66.5c0 -16.667 3.66699 -40.667 11 -72s11 -58.666 11 -81.999c0 -44 -17 -84.5 -51 -121.5s-78.333 -59.167 -133 -66.5v17c38.667 9.33301 66.834 24.333 84.501 45s26.5 43.667 26.5 69c0 18.667 -3.83301 43.834 -11.5 75.501
s-11.5 58.167 -11.5 79.5c0 33.333 12.167 65.5 36.5 96.5s60.5 54.833 108.5 71.5c-46.667 17.333 -82.5 41.833 -107.5 73.5s-37.5 63.834 -37.5 96.501c0 22 3.83301 48.833 11.5 80.5s11.5 56.834 11.5 75.501c0 25.333 -8.83301 48.333 -26.5 69
s-45.834 35.334 -84.501 44.001z" />
    <glyph glyph-name="asciitilde" unicode="~" horiz-adv-x="541" 
d="M509 330h22.002c-1.33301 -42.667 -13.5 -76 -36.5 -100s-50.833 -36 -83.5 -36c-14.667 0 -30.667 2.5 -48 7.5s-62 22.167 -134 51.5c-50 21.333 -85.667 32 -107 32c-22.667 0 -41.834 -7 -57.501 -21s-26.834 -37 -33.501 -69h-21c2 44 14 77.667 36 101s48 35 78 35
c14.667 0 29.334 -2.33301 44.001 -7c34 -9.33301 78.5 -25.833 133.5 -49.5s93.833 -35.5 116.5 -35.5c24.667 0 45.167 7.83301 61.5 23.5s26.166 38.167 29.499 67.5z" />
    <glyph glyph-name="uni0601" unicode="&#x601;" horiz-adv-x="532" 
d="M259 -61c-1.33301 0 -4.16699 1.83594 -8.5 5.50293s-9.16602 8 -14.499 13l-15 14c-4.66699 4.33301 -8 7.5 -10 9.5c8 9.33301 14.333 17.166 19 23.499s8.66699 11.166 12 14.499s6.33301 5 9 5s6 -1.66699 10 -5c7.33301 -7.33301 14.666 -14.166 21.999 -20.499
s12.333 -10.833 15 -13.5c0 -0.666992 -2 -3.33398 -6 -8.00098l-13 -15l-13 -15c-4 -4.66699 -6.33301 -7.33398 -7 -8.00098zM567.999 -195.997c-2 -4 -5.33594 -11.4971 -10.0029 -22.4971l-14.5 -34.5l-14 -34c-4.33301 -10.667 -7.5 -18 -9.5 -22
c-5.33301 -14 -12.666 -27.833 -21.999 -41.5s-20.333 -25.834 -33 -36.501s-26.5 -19.167 -41.5 -25.5s-30.833 -9.5 -47.5 -9.5c-17.333 0 -34 4.16699 -50 12.5s-32 15.166 -48 20.499c-9.33301 3.33301 -19.166 4.16602 -29.499 2.49902s-20.5 -4.83398 -30.5 -9.50098
s-19.667 -10.167 -29 -16.5s-17.333 -12.5 -24 -18.5l-40.5 -42l-37.5 -39c6 28 15 57.167 27 87.5s27.333 58.166 46 83.499s40.334 46.666 65.001 63.999s52.667 27 84 29c8.66699 0.666992 17.167 -0.666016 25.5 -3.99902s16.333 -7.16602 24 -11.499
s15.334 -8.33301 23.001 -12s15.167 -5.5 22.5 -5.5c20.667 0 39 4.33301 55 13s30.5 19.834 43.5 33.501s25 28.5 36 44.5l31.5 46c6.66699 9.33301 15.167 16.666 25.5 21.999s21.166 7.33301 32.499 6c51.333 -14.667 97.333 -27 138 -37s79.167 -17.833 115.5 -23.5
s71.833 -9.33398 106.5 -11.001s71.667 -2 111 -1s82.5 3.5 129.5 7.5s100.833 9 161.5 15c32 2.66699 66.5 7.66699 103.5 15s74.333 16 112 26s74.667 21 111 33s70.166 24 101.499 36c76.667 28 145 64.333 205 109s116.667 98.334 170 161.001
c0.666992 2 2.16699 3.83301 4.5 5.5s4.66602 2.83398 7 3.50098c2.33301 0.666992 4.33301 0.666992 6 0s2.5 -3 2.5 -7c0 -9.33301 -3.33301 -20 -10 -32s-11.667 -21.333 -15 -28c-20 -38 -44.333 -73.333 -73 -106s-59.834 -62.834 -93.501 -90.501
s-69 -53.334 -106 -77.001s-73.833 -45.834 -110.5 -66.501c-124.667 -54 -253.167 -93.833 -385.5 -119.5s-265.833 -38.5 -400.5 -38.5c-46 0 -90.833 1.33301 -134.5 4s-87.5 6.66699 -131.5 12c-22.667 2.66699 -44.167 6.33398 -64.5 11.001
s-38.666 11.834 -54.999 21.501s-30.166 22.334 -41.499 38.001s-19.333 35.5 -24 59.5zM287.996 253.006l15.998 -0.000976562c12 0 24 1.83301 36 5.5s18 9.83398 18 18.501v3c-1.33301 2 -4 5.16699 -8 9.5s-8.66699 9 -14 14s-10.666 9.33301 -15.999 13
s-10 5.5 -14 5.5h-2c0 -8 -0.5 -14.833 -1.5 -20.5s-2.66699 -11 -5 -16s-5.16602 -10 -8.49902 -15l-12 -17.5h11zM195.994 298.005c0 -10 3.5 -20 10.5 -30s15.5 -15 25.5 -15c12 0 22.5 4.5 31.5 13.5s13.5 19.167 13.5 30.5c0 10.667 -4.5 19.5 -13.5 26.5
s-19.5 10.5 -31.5 10.5c-10 0 -18.5 -3.5 -25.5 -10.5s-10.5 -15.5 -10.5 -25.5zM327.994 363.005l20.499 -14.501l17.5 -12.5c12 -7.33301 18 -22 18 -44c-3.33301 -19.333 -9.33301 -34.166 -18 -44.499s-19 -17.833 -31 -22.5s-25 -7.5 -39 -8.5
s-27.667 -1.83301 -41 -2.5c-19.333 0 -36 -2 -50 -6c-16.667 -6 -30.834 -13.5 -42.501 -22.5s-24.5 -20.5 -38.5 -34.5c14 6 27.833 9.5 41.5 10.5s28.5 1.5 44.5 1.5h13c10 0 19.833 -1 29.5 -3s14.5 -6.33301 14.5 -13c1.33301 -7.33301 -2.66699 -17 -12 -29
c-4 -4 -10.333 -10 -19 -18l-27 -25.5l-26.5 -25c-8.33301 -7.66699 -13.833 -12.834 -16.5 -15.501c-12.667 -16.667 -23.167 -31 -31.5 -43s-15.166 -22.833 -20.499 -32.5s-10 -19.167 -14 -28.5s-8 -19.666 -12 -30.999c-2 -4.66699 -4.5 -10 -7.5 -16
s-4.5 -9.66699 -4.5 -11c-4 -5.33301 -6 -5.33301 -6 0c1.33301 21.333 6.33301 43.5 15 66.5s19.834 45.5 33.501 67.5s29.167 42.667 46.5 62s35.333 36 54 50c-17.333 3.33301 -36 3.16602 -56 -0.500977s-44.333 -8.83398 -73 -15.501
c1.33301 12.667 5.16602 25.334 11.499 38.001s13.833 24.834 22.5 36.501s18.334 22.5 29.001 32.5s21 18.667 31 26c-4.66699 10 -7.5 18 -8.5 24s-1.5 14 -1.5 24c2 26 10.333 46.333 25 61c15.333 15.333 29 30 41 44c12 11.333 19 21 21 29c8 -10 17.667 -19 29 -27z
" />
    <glyph glyph-name="uni0602" unicode="&#x602;" 
d="M78 1568c-8.66699 -0.666992 -17.165 -4.16504 -25.498 -10.498s-15.5 -12.166 -21.5 -17.499c1.33301 -4 4.5 -7.83301 9.5 -11.5s10.5 -6.83398 16.5 -9.50098s12 -4.83398 18 -6.50098s10.667 -2.5 14 -2.5c0.666992 1.33301 1.16699 5.16602 1.5 11.499
s0.166016 13 -0.500977 20s-1.83398 13.167 -3.50098 18.5s-4.5 8 -8.5 8zM99.002 1508c13.333 -3.33301 25.9961 -5.00195 37.9961 -5.00195h36c36 1.33301 70.167 4.33301 102.5 9s64.5 10.667 96.5 18c7.33301 2 10.333 2 9 0s-5.33301 -5.33301 -12 -10
c-36.667 -18 -74 -31.333 -112 -40s-77.333 -13.667 -118 -15c-7.33301 0 -18.166 0.333008 -32.499 1s-28.666 2.66699 -42.999 6s-27.166 8.33301 -38.499 15s-17.333 16 -18 28c0.666992 8.66699 4.16699 19 10.5 31s14 23.5 23 34.5s18.5 20.333 28.5 28
s19.333 12.167 28 13.5c8.66699 0 14.667 -4.16699 18 -12.5s5 -16.166 5 -23.499c0 -14 -2.16699 -27.167 -6.5 -39.5s-9.16602 -25.166 -14.499 -38.499z" />
    <glyph glyph-name="uni0603" unicode="&#x603;" horiz-adv-x="502" 
d="M342 91c5.33301 0 14.001 0.668945 26.001 2.00195s24.667 4.16602 38 8.49902s26.166 10.166 38.499 17.499s21.833 16.666 28.5 27.999c-5.33301 11.333 -15 18.5 -29 21.5s-25.667 1.5 -35 -4.5c-15.333 -7.33301 -28 -18.166 -38 -32.499zM118.001 0.00195312
c-16.667 0 -30.832 0.166992 -42.499 0.5s-25.834 1.83301 -42.501 4.5c-11.333 2 -17.166 5 -17.499 9s6.16699 7.66699 19.5 11c32.667 5.33301 64.834 11.333 96.501 18s63.834 18 96.501 34c10 6 17.667 11.333 23 16s9.66602 8.83398 12.999 12.501l8 9
c2 2.33301 4.66699 3.83301 8 4.5c2.66699 0 5.16699 -1.16699 7.5 -3.5s5.16602 -5 8.49902 -8s7.5 -6 12.5 -9s12.167 -4.5 21.5 -4.5l7 11c3.33301 5.33301 7 10.833 11 16.5s7.66699 11.167 11 16.5l7 11c4 6 8.83301 12.333 14.5 19s11.834 13 18.501 19
s13.834 11 21.501 15s15.5 6 23.5 6c14 0 24.667 -4.33301 32 -13s11 -19.667 11 -33c0 -21.333 -4.5 -41.333 -13.5 -60s-20.833 -35 -35.5 -49s-31.834 -25 -51.501 -33s-39.834 -12 -60.501 -12c-25.333 0.666992 -43 6.5 -53 17.5s-16 26.5 -18 46.5
c-10.667 -14 -20.167 -25.333 -28.5 -34s-17.5 -15.667 -27.5 -21s-21.333 -9.33301 -34 -12s-28.334 -4.33398 -47.001 -5.00098z" />
    <glyph glyph-name="Ocircumflex.001" unicode="&#x60c;" horiz-adv-x="230" 
d="M193 313c2 -1.33301 2.99707 -6.66797 2.99707 -16.001l-32 -16c-40.667 -29.333 -64.334 -56.333 -71.001 -81c0 -8 2 -12.667 6 -14c22.667 2 39 -4.66699 49 -20c10.667 -20 9 -39.333 -5 -58c-12 -16 -29.667 -21.333 -53 -16c-27.333 6 -42.666 26 -45.999 60
c-3.33301 31.333 5.33398 61.333 26.001 90c18 26.667 42.667 47.334 74 62.001c16.667 8 28.334 12 35.001 12c4.66699 0 9.33398 -1 14.001 -3z" />
    <glyph glyph-name="C.002" unicode="&#x60e;" horiz-adv-x="193" 
d="M1 20c14 -28.667 21 -56.666 21 -83.999c0 -8.66699 -0.666992 -17 -2 -25c14 -3.33301 52 -4.33301 114 -3c39.333 1.33301 87 7 143 17s101 21.333 135 34h6c2.66699 -0.666992 4 -2.33398 4 -5.00098c-10.667 -22 -32.667 -38.333 -66 -49
c-0.666992 -0.666992 -29 -7.33398 -85 -20.001c-71.333 -16.667 -137 -25 -197 -25c-67.333 0 -118.333 11.333 -153 34c-22.667 14.667 -34 37 -34 67c0 8 1 16 3 24c8.66699 26.667 21 43.334 37 50.001c14 10.667 31.667 12.334 53 5.00098
c4.66699 -2.66699 11.667 -9.33398 21 -20.001zM-27 -3.99902c-8.66699 6 -17.999 8.00098 -27.999 6.00098c-22.667 -5.33301 -35.334 -17 -38.001 -35c6 -26 36 -43.667 90 -53c1.33301 5.33301 2 10.666 2 15.999c0 20.667 -8.66699 42.667 -26 66z" />
    <glyph glyph-name="uni060F" unicode="&#x60f;" horiz-adv-x="543" 
d="M180 96c9.33301 -10 20.833 -16.666 34.5 -19.999s26.834 -5 39.501 -5c36 0.666992 68.833 11.167 98.5 31.5s55.5 43.5 77.5 69.5l10 13.5c3.33301 4.33301 5 9.16602 5 14.499c-1.33301 10 -4.33301 18.5 -9 25.5s-10.334 12.5 -17.001 16.5s-14 6.83301 -22 8.5
s-16 2.5 -24 2.5c-20.667 0 -40.5 -5.33301 -59.5 -16s-36.667 -23.834 -53 -39.501s-31.333 -32.667 -45 -51s-25.5 -35.166 -35.5 -50.499zM120 39.001c-19.333 32 -29 66.3301 -29 102.997c0 40.667 6.83301 81 20.5 121s32.834 76 57.501 108
c-6.66699 5.33301 -14.5 12.166 -23.5 20.499s-13.5 17.5 -13.5 27.5c0 13.333 3.66699 24.833 11 34.5l22 28.5l15.5 25.5c5.66699 9 11.834 17.5 18.501 25.5s14.167 14.667 22.5 20s18.166 8 29.499 8c7.33301 0 16.166 -2.5 26.499 -7.5s15.5 -12.167 15.5 -21.5
c0 -5.33301 -1.5 -10.666 -4.5 -15.999s-7.83301 -8 -14.5 -8c-7.33301 0 -14.333 2.16699 -21 6.5s-14 6.5 -22 6.5c-7.33301 -1.33301 -16 -5 -26 -11s-15.333 -14 -16 -24c0 -6.66699 2.33301 -12.5 7 -17.5s10.167 -9.16699 16.5 -12.5s13.166 -5.83301 20.499 -7.5
s14 -2.5 20 -2.5c2 0 4 0.333008 6 1s6 2.5 12 5.5l26 13.5l47 26c5.33301 2 7.66602 1.5 6.99902 -1.5s-2 -6.5 -4 -10.5c-5.33301 -7.33301 -12 -14 -20 -20l-19 -14l-62 -44c-21.333 -15.333 -40.833 -32.166 -58.5 -50.499s-32.167 -38.333 -43.5 -60
s-17 -46.167 -17 -73.5c0 -17.333 2.16699 -35.166 6.5 -53.499s11.833 -34.166 22.5 -47.499c12 22 26.833 45.5 44.5 70.5s37 48.167 58 69.5s43.5 39.166 67.5 53.499s48.667 21.5 74 21.5c11.333 0 21.5 -2.66699 30.5 -8s16.667 -12.166 23 -20.499
s11.166 -17.666 14.499 -27.999s5 -20.5 5 -30.5c-1.33301 -18 -5.33301 -36.333 -12 -55s-15 -36.5 -25 -53.5s-21 -33.167 -33 -48.5s-23.333 -28.666 -34 -39.999c-18.667 -18.667 -39.5 -34 -62.5 -46s-48.167 -18 -75.5 -18c-18 0 -35.167 3.33301 -51.5 10
s-31.166 15.667 -44.499 27l-12.5 -22.5l-18 -32.5l-17.5 -31.5c-5.33301 -9.66699 -9.33301 -16.5 -12 -20.5c-1.33301 -2.66699 -3.16602 -5.83398 -5.49902 -9.50098s-5.16602 -7.33398 -8.49902 -11.001s-6.83301 -6.66699 -10.5 -9s-7.5 -3.5 -11.5 -3.5
c5.33301 12 14.5 30.833 27.5 56.5z" />
    <glyph glyph-name="c157.003" unicode="&#x610;" 
d="M79 1127l-2 -3.00098c0 -22.667 -2 -56.667 -6 -102l-18 -30c-3.33301 -0.666992 -7 1 -11 5c8.66699 62.667 10 116.334 4 161.001c4 19.333 11 36.333 21 51c1.33301 3.33301 3.33301 4 6 2c2 -1.33301 4.33301 -3.16602 7 -5.49902s6 -3.5 10 -3.5c6 0 14.667 4 26 12
c6 4 22.667 19.667 50 47c20 20.667 39 33 57 37c33.333 0 49 -12.667 47 -38c-7.33301 -30 -22.666 -57.5 -45.999 -82.5s-50 -41.167 -80 -48.5c-18.667 -4.66699 -40.334 -5.33398 -65.001 -2.00098zM239 1254c-4.66699 6.66699 -14.668 10 -30.001 10
c-12 -4.66699 -26 -15 -42 -31c-20 -19.333 -33.333 -31.333 -40 -36c10.667 -1.33301 20.334 -2 29.001 -2c33.333 0 58.333 9.33301 75 28c7.33301 14.667 10 25 8 31z" />
    <glyph glyph-name="oe.003" unicode="&#x611;" 
d="M68 1255l2.99902 -3.00293l6 -59c4.66699 -21.333 16 -34.333 34 -39c20 39.333 31.333 61 34 65c15.333 22.667 33.666 37.667 54.999 45c10.667 0 17.334 -1.66699 20.001 -5c6.66699 -4.66699 8.66699 -10.667 6 -18
c-0.666992 -1.33301 -2.66699 -3.66602 -6 -6.99902c-13.333 4.66699 -22.666 7 -27.999 7c-6.66699 0 -12.334 -2.33301 -17.001 -7c-16.667 -14 -25.334 -28.333 -26.001 -43c1.33301 -10 5 -17.667 11 -23c11.333 -9.33301 23 -11.333 35 -6c14 6 25.333 16.667 34 32
c0.666992 0 1.5 0.333008 2.5 1s2.16699 1 3.5 1c4 -5.33301 4 -10 0 -14c-17.333 -31.333 -30.333 -52.666 -39 -63.999c-19.333 -23.333 -40.666 -35.666 -63.999 -36.999c-3.33301 -0.666992 -7 -1 -11 -1c-14.667 0 -30.667 7 -48 21l-2 -53l-18 -51
c0.666992 0 -0.666016 1.66699 -3.99902 5l2 217c4 18.667 9.66699 30.667 17 36z" />
    <glyph glyph-name="Ydieresis.004" unicode="&#x612;" 
d="M327 1225c0 -42.667 -9.33008 -94.333 -27.9971 -155c-6.66699 -22.667 -24.334 -37.667 -53.001 -45l-72 -14c-1.33301 0 -5.66602 -0.333008 -12.999 -1c-4.66699 -1.33301 -7.66699 0 -9 4c0 3.33301 4.66699 8 14 14l64 36c25.333 16 42.666 33.667 51.999 53
c5.33301 10 15.666 48 30.999 114c3.33301 3.33301 6.66602 4 9.99902 2c2.66699 -2 4 -4.66699 4 -8zM78.0029 1031l-15.998 -28.9961c-4.66699 -3.33301 -8.33398 -4 -11.001 -2c-0.666992 12.667 3.66602 30 12.999 52c8.66699 20 24 39.333 46 58
c9.33301 7.33301 30 21.333 62 42c5.33301 5.33301 10.666 13.333 15.999 24c-24 6.66699 -51.333 7.66699 -82 3c-8.66699 -4 -17.667 -13.333 -27 -28c-1.33301 -0.666992 -3 -1 -5 -1s-3.66699 0.166992 -5 0.5s-2 4.16602 -2 11.499c17.333 30 36.333 46 57 48
c37.333 3.33301 66.333 2.66602 87 -2.00098c3.33301 -2.66699 3.33301 -11.334 0 -26.001c-9.33301 -22.667 -30.666 -48.334 -63.999 -77.001c-36 -31.333 -59 -56 -69 -74z" />
    <glyph glyph-name="c158.004" unicode="&#x613;" 
d="M54 1279l31.001 30c6 -0.666992 12.667 -4.66699 20 -12c10 -8.66699 16.333 -14 19 -16v-6l-31 -31c-4.66699 -1.33301 -13.334 2.66699 -26.001 12c-10 12 -14.333 19.667 -13 23zM58.001 1140l7 30.999c4.66699 -1.33301 11 -3.33301 19 -6
c5.33301 3.33301 20.333 19 45 47c18.667 20.667 36 31 52 31c6.66699 0 14 -1.66699 22 -5c5.33301 -5.33301 8 -12 8 -20c0 -9.33301 -4.66699 -23 -14 -41c-26.667 -50.667 -64.334 -74 -113.001 -70l-2 -59c-2 -23.333 -8.66699 -40.666 -20 -51.999
c-2.66699 0 -4.66699 1 -6 3c4.66699 72 5.33398 119 2.00098 141zM289.001 1224c-5.33301 -39.333 -9.00195 -65.666 -11.002 -78.999c-5.33301 -29.333 -11.666 -54.833 -18.999 -76.5s-24.333 -36.5 -51 -44.5l-70 -16c4.66699 0 -0.333008 -1 -15 -3
c-6.66699 -0.666992 -11 1.33301 -13 6c4 7.33301 12 13.666 24 18.999s20 10 24 14c34.667 24 53.334 37 56.001 39c20 16.667 32 34.667 36 54l26 96c1.33301 0.666992 2.33301 1 3 1zM188.999 1214c-5.33301 2.66699 -10.666 4 -15.999 4c-11.333 0 -23 -7 -35 -21
l-28 -34c41.333 -1.33301 68.333 10 81 34c1.33301 6 0.666016 11.667 -2.00098 17z" />
    <glyph glyph-name="uni0614" unicode="&#x614;" 
d="M188 1037c6 2.66699 12.665 6.16602 19.998 10.499s13.666 8.5 18.999 12.5c10 8 19.833 16.667 29.5 26s21.5 13.666 35.5 12.999c7.33301 0.666992 12.5 -0.5 15.5 -3.5s6.83301 -5.16699 11.5 -6.5c6 1.33301 10.5 5.16602 13.5 11.499s6.16699 11.166 9.5 14.499
c1.33301 1.33301 2.33301 2 3 2c1.33301 0 2 -1.66699 2 -5c-1.33301 -6.66699 -3.66602 -13.5 -6.99902 -20.5s-7 -13.167 -11 -18.5s-8.16699 -9.66602 -12.5 -12.999s-8.16602 -4.66602 -11.499 -3.99902c-2.66699 0 -4.66699 0.333008 -6 1
s-2.83301 1.33398 -4.5 2.00098s-3.83398 1.16699 -6.50098 1.5s-6.66699 0.5 -12 0.5c-9.33301 -1.33301 -17.666 -4.16602 -24.999 -8.49902s-15 -9.16602 -23 -14.499c-18.667 -15.333 -39 -26 -61 -32s-47 -10 -75 -12c-12 0 -24.5 0.5 -37.5 1.5
s-25.167 3.16699 -36.5 6.5c-5.33301 1.33301 -7.83301 3.16602 -7.5 5.49902s2.5 3.5 6.5 3.5c28 2.66699 56.833 5 86.5 7s57.834 8.33301 84.501 19z" />
    <glyph glyph-name="uni0615" unicode="&#x615;" 
d="M123 1210l26.999 37.998l6 -1c0.666992 -4.66699 0.333984 -10.334 -0.999023 -17.001c-1.33301 -9.33301 -2 -15 -2 -17l-2 -54c-2 -21.333 -5.66699 -39 -11 -53c4 0.666992 9 3.5 15 8.5s10.333 7.83301 13 8.5c22 7.33301 38.5 6.5 49.5 -2.5s14.167 -22.5 9.5 -40.5
c-24 -42.667 -49.333 -66.667 -76 -72c-22 -1.33301 -53.667 -5 -95 -11c-6.66699 0 -11.334 1.33301 -14.001 4c0.666992 10.667 9.33398 18.334 26.001 23.001c30.667 37.333 46 68 46 92c2 8.66699 3 24.334 3 47.001c-0.666992 20.667 1.33301 36.334 6 47.001z
M106.999 1033l0.00195312 -3.00098c21.333 4 34.666 6.66699 39.999 8c14.667 4.66699 26 11.334 34 20.001c5.33301 7.33301 7.66602 14.333 6.99902 21l-6 6c-4 1.33301 -8 2 -12 2c-12 0 -23.167 -6.16699 -33.5 -18.5z" />
    <glyph glyph-name="semicolon.002" unicode="&#x61b;" horiz-adv-x="230" 
d="M50 373c0 23.333 8.33301 47.333 25 72c18 27.333 41 47.333 69 60c8.66699 4 16 6 22 6c7.33301 0 11 -2.33301 11 -7c0 -6.66699 -6.33301 -13.5 -19 -20.5s-26 -17.833 -40 -32.5c-16 -18 -24 -33 -24 -45c0 -8.66699 4.66699 -12.334 14 -11.001
c12.667 1.33301 23.167 -2.66699 31.5 -12s12.5 -19.333 12.5 -30c0 -13.333 -4.83301 -24.333 -14.5 -33s-21.167 -13 -34.5 -13c-16.667 0 -30 7.33301 -40 22c-8.66699 12.667 -13 27.334 -13 44.001zM109 158c10.667 0 20 -4.16699 28 -12.5s12 -17.833 12 -28.5
c0 -11.333 -3.83301 -21 -11.5 -29s-17.167 -12 -28.5 -12c-27.333 0 -41 13.667 -41 41c0 10 4 19.333 12 28s17.667 13 29 13z" />
    <glyph glyph-name="question.002" unicode="&#x61f;" horiz-adv-x="374" 
d="M200 271l-1.99609 -50.9971h-29c0 45.333 -8.66699 80.333 -26 105c-36 40 -58 65.667 -66 77c-20.667 31.333 -29.667 62.666 -27 93.999c2 24.667 11.167 47.667 27.5 69s36.5 36 60.5 44c15.333 5.33301 31.666 8 48.999 8c45.333 0 82.333 -15.333 111 -46
c10 -10.667 16.667 -20 20 -28c6 -14 9 -28.333 9 -43c0 -23.333 -7.33301 -42 -22 -56c-14.667 -10 -30.334 -12 -47.001 -6c-16 6 -24.667 17.333 -26 34c-2 12 2 23 12 33c9.33301 8 18.333 16.333 27 25c2.66699 12 -2.33301 23.833 -15 35.5s-28.667 17.5 -48 17.5
c-10.667 0 -20.667 -2 -30 -6c-32.667 -12.667 -50.334 -41.334 -53.001 -86.001c-2 -37.333 6 -70 24 -98c19.333 -30 31 -49 35 -57c11.333 -22.667 16.666 -44.334 15.999 -65.001zM224.004 149.003c8.66699 -12.667 10.333 -26.333 5 -41
c-6 -16.667 -18 -27.334 -36 -32.001c-22 -2 -38.667 5.33301 -50 22c-5.33301 6 -8 14 -8 24c-0.666992 10 1.33301 18.333 6 25c4 12 15 20 33 24c22 2.66699 38.667 -4.66602 50 -21.999z" />
    <glyph glyph-name="afii57409" unicode="&#x621;" horiz-adv-x="246" 
d="M17 158c3.33301 9.33301 8.33398 18.3291 15.001 26.9961l48 61c19.333 22.667 39.333 37.334 60 44.001s36.667 2.66699 48 -12c1.33301 -4.66699 1.33301 -12 0 -22c-4.66699 -7.33301 -10 -12 -16 -14c-6 -1.33301 -13.667 0.333984 -23 5.00098
s-17 6.33398 -23 5.00098c-19.333 -6 -31 -20.667 -35 -44c0 -14.667 9.66699 -26 29 -34c6.66699 -2.66699 13.334 -4 20.001 -4c12.667 0 27 5.33301 43 16c23.333 16 37.5 25.167 42.5 27.5s9.5 2.83301 13.5 1.5c1.33301 -1.33301 0 -6 -4 -14
c-2.66699 -5.33301 -20.334 -21.666 -53.001 -48.999c-8.66699 -6.66699 -23 -18.334 -43 -35.001l-87 -85c-14 -15.333 -25.667 -27 -35 -35c-8 0 -12 2.33301 -12 7c1.33301 12.667 7.66602 25.667 18.999 39l28 34l13 16c-11.333 5.33301 -18 9 -20 11
c-8 4.66699 -14 10 -18 16c-6.66699 6.66699 -10 19.334 -10 38.001z" />
    <glyph glyph-name="W.003" unicode="&#x622;" horiz-adv-x="345" 
d="M340 685c-21.333 -61.333 -57.666 -110 -108.999 -146c-26.667 -18 -53.667 -27 -81 -27c-13.333 0 -26 2.33301 -38 7c-2 0.666992 -5.83301 3.16699 -11.5 7.5s-10.167 6.5 -13.5 6.5c-1.33301 0 -3.33301 -0.666992 -6 -2c-17.333 -9.33301 -36.666 -28 -57.999 -56
c-2.66699 -2 -7.66699 -3 -15 -3c-2 2 -2 8.33301 0 19c34.667 66 73 113.333 115 142c4 4 9 6 15 6c5.33301 0 12.166 -2.5 20.499 -7.5s14.166 -7.83301 17.499 -8.5c12.667 -4.66699 25.667 -7 39 -7c26.667 0 49.667 8 69 24c9.33301 12.667 25.333 29.667 48 51
c5.33301 3.33301 8 1.33301 8 -6zM183 451c-2 -11.333 -6.66797 -63.002 -14.001 -155.002v-59c0.666992 -96 -13 -173 -41 -231c-4.66699 -4.66699 -7.66699 -6.66699 -9 -6c-5.33301 3.33301 -6.66602 9.33301 -3.99902 18c6.66699 38.667 9.66699 83.334 9 134.001
c-2 44 -3.66699 88.333 -5 133c0 14.667 2 35.334 6 62.001c10.667 23.333 25.667 58.333 45 105c0.666992 2.66699 3 4 7 4c4.66699 0 6.66699 -1.66699 6 -5z" />
    <glyph glyph-name="afii57412" unicode="&#x624;" horiz-adv-x="250" 
d="M214 192c-4.66699 -32.667 -22 -76.002 -52 -130.002c-8 -14.667 -22 -24.667 -42 -30c-16.667 -4 -33.667 -8.33301 -51 -13c-12.667 -4 -32 -9.66699 -58 -17c-6 0 -9.66699 2 -11 6c-0 4.66699 4.33301 9.66699 13 15l80 47c29.333 18.667 54.333 37.667 75 57
c6 8 8 19 6 33c-4 10 -8.66699 16.667 -14 20c-6.66699 -1.33301 -13 -2 -19 -2c-24 0 -42 8.33301 -54 25c-4.66699 8 -7 16.333 -7 25c0 9.33301 3 21 9 35c5.33301 10.667 10.333 21.834 15 33.501s9 24.167 13 37.5c7.33301 14.667 17 24.334 29 29.001
c22 4 39.667 -5 53 -27c14.667 -24.667 22 -54 22 -88c0 -18 -2.33301 -36.667 -7 -56zM82 485.998c2 6.66699 5.33203 12.9971 9.99902 18.9971c12.667 15.333 24.667 30.666 36 45.999c13.333 16 27.666 26.667 42.999 32c15.333 4.66699 26.666 1.66699 33.999 -9
c2 -3.33301 2 -8.66602 0 -15.999c-2.66699 -5.33301 -6 -8.66602 -10 -9.99902c-4.66699 -1.33301 -10.334 -0.166016 -17.001 3.50098s-12.334 4.5 -17.001 2.5c-14 -3.33301 -22.333 -13.666 -25 -30.999c0 -10.667 6.66699 -19.334 20 -26.001
c5.33301 -1.33301 10.333 -2 15 -2c9.33301 0 20 4 32 12c16.667 11.333 26.834 17.833 30.501 19.5s7.16699 2.16699 10.5 1.5c0.666992 -1.33301 -0.333008 -4.66602 -3 -9.99902c-2.66699 -4 -15.667 -16.333 -39 -37c-6.66699 -4 -17 -12.333 -31 -25
c-15.333 -13.333 -36.666 -34 -63.999 -62c-10 -10.667 -18.333 -19 -25 -25c-6 0 -9 1.66699 -9 5c0.666992 9.33301 5.33398 19 14.001 29c6.66699 7.33301 13.334 15.333 20.001 24l9 12c-8 4 -12.667 6.66699 -14 8c-5.33301 3.33301 -9.66602 7.33301 -12.999 12
c-4.66699 4.66699 -7 13.667 -7 27z" />
    <glyph glyph-name="Y.001" unicode="&#x626;" horiz-adv-x="246" 
d="M17 158c3.33301 9.33301 8.33398 18.3291 15.001 26.9961l48 61c19.333 22.667 39.333 37.334 60 44.001s36.667 2.66699 48 -12c1.33301 -4.66699 1.33301 -12 0 -22c-4.66699 -7.33301 -10 -12 -16 -14c-6 -1.33301 -13.667 0.333984 -23 5.00098
s-17 6.33398 -23 5.00098c-19.333 -6 -31 -20.667 -35 -44c0 -14.667 9.66699 -26 29 -34c6.66699 -2.66699 13.334 -4 20.001 -4c12.667 0 27 5.33301 43 16c23.333 16 37.5 25.167 42.5 27.5s9.5 2.83301 13.5 1.5c1.33301 -1.33301 0 -6 -4 -14
c-2.66699 -5.33301 -20.334 -21.666 -53.001 -48.999c-8.66699 -6.66699 -23 -18.334 -43 -35.001l-87 -85c-14 -15.333 -25.667 -27 -35 -35c-8 0 -12 2.33301 -12 7c1.33301 12.667 7.66602 25.667 18.999 39l28 34l13 16c-11.333 5.33301 -18 9 -20 11
c-8 4.66699 -14 10 -18 16c-6.66699 6.66699 -10 19.334 -10 38.001z" />
    <glyph glyph-name="Z.001" unicode="&#x627;" horiz-adv-x="92" 
d="M87 484c-2 -12 -4.33008 -29.667 -6.99707 -53c-2.66699 -30 -4.33398 -71.333 -5.00098 -124c0 -60.667 -0.666992 -103 -2 -127c-2.66699 -51.333 -16.667 -105 -42 -161c-4.66699 -10.667 -9 -16 -13 -16c-2 0 -4 0.666992 -6 2
c-4.66699 2.66699 -6.33398 8.66699 -5.00098 18c5.33301 18 9.66602 63 12.999 135c-4.66699 58 -6.33398 123 -5.00098 195c10.667 36 29.334 80.667 56.001 134c6.66699 4 12 3 16 -3z" />
    <glyph glyph-name="bracketleft.001" unicode="&#x628;" horiz-adv-x="714" 
d="M709 235c-9.33301 -41.333 -28.999 -79.668 -58.999 -115.001s-65 -59 -105 -71c-106.667 -32.667 -211.667 -49 -315 -49c-52.667 0 -102.334 4.33301 -149.001 13c-40 7.33301 -63.667 26.333 -71 57c-3.33301 15.333 -5 32 -5 50c0 24.667 5.33301 61.667 16 111
c0.666992 2 1.33398 3.83301 2.00098 5.5s1.66699 2.5 3 2.5c6.66699 0 10.667 -2 12 -6c0 -16.667 0.333008 -33 1 -49c1.33301 -20 9.66602 -33 24.999 -39c53.333 -21.333 138.333 -31.333 255 -30c118 1.33301 214.667 15.333 290 42c36.667 12.667 65 39 85 79
c1.33301 2.66699 4.33301 4.33398 9 5.00098c4 0 6 -2 6 -6zM238.001 -167.002l2 6c14 18.667 36 45.667 66 81l6 -2c16 -14 42 -33.667 78 -59v-9c-10.667 -16 -31.334 -40.667 -62.001 -74c-3.33301 -1.33301 -6.66602 -2 -9.99902 -2c-4 0 -14.333 5.33301 -31 16
c-12 8 -28.333 22.333 -49 43z" />
    <glyph glyph-name="greater.001" unicode="&#x629;" horiz-adv-x="301" 
d="M230 264c6.66699 -16 10 -33.334 10 -52.001c0 -28 -7.33301 -61.333 -22 -100c-28 -74.667 -65 -111.334 -111 -110.001c-20.667 3.33301 -35.667 16.333 -45 39c-0.666992 8.66699 -1 17.667 -1 27c0 22 11 66 33 132c-4 0.666992 -9.66699 3.33398 -17 8.00098
c4 20.667 8.33301 38.334 13 53.001c2 14.667 6 35.334 12 62.001c5.33301 3.33301 20 3.66602 44 0.999023c39.333 -4 67.333 -24 84 -60zM180 168.999c-12.667 17.333 -31.332 26.667 -55.999 28c-20.667 -41.333 -29.334 -78.333 -26.001 -111
c4 -12.667 10.667 -20.667 20 -24c3.33301 -0.666992 6.66602 -1 9.99902 -1c12.667 0 31.334 12 56.001 36c4.66699 9.33301 7 19.333 7 30c0 15.333 -3.66699 29.333 -11 42zM158.002 476l3.00195 -0.000976562c11.333 14.667 28.333 34.667 51 60
c8 -4 18.833 -11.333 32.5 -22s23.5 -17.667 29.5 -21s13.333 -9.66602 22 -18.999c-6 -12.667 -24.667 -37.667 -56 -75c-4.66699 -8.66699 -11.334 -11 -20.001 -7c-28.667 12.667 -53.334 32 -74.001 58h-3c-10 -14.667 -27.333 -35 -52 -61c-6 0 -17.667 4.66699 -35 14
c-12.667 9.33301 -29.667 24.333 -51 45l1 6c13.333 18.667 35 45.667 65 81l5 -2c18 -13.333 45.333 -32.333 82 -57z" />
    <glyph glyph-name="bracketright.001" unicode="&#x62a;" horiz-adv-x="713" 
d="M708 235c-8.66699 -41.333 -28.166 -79.668 -58.499 -115.001s-65.166 -59 -104.499 -71c-106.667 -32.667 -212 -49 -316 -49c-52 0 -101.667 4.33301 -149 13c-40 7.33301 -63.333 26.333 -70 57c-3.33301 15.333 -5 32 -5 50c0 24.667 5 61.667 15 111
c0.666992 2 1.5 3.83301 2.5 5.5s2.16699 2.5 3.5 2.5c6 0 9.66699 -2 11 -6c0 -16.667 0.333008 -33 1 -49c1.33301 -20 9.66602 -33 24.999 -39c53.333 -21.333 138.666 -31.333 255.999 -30s214 15.333 290 42c36 12.667 64.333 39 85 79
c1.33301 2.66699 4 4.33398 8 5.00098c4 0 6 -2 6 -6zM345.001 295.998l-2.99805 -0.000976562c-8 -10 -15.667 -20.333 -23 -31c-10 -12 -20 -20.333 -30 -25c-12.667 1.33301 -26.334 7.33301 -41.001 18l-36 30c-3.33301 5.33301 -3.33301 9.66602 0 12.999
c5.33301 8.66699 23.333 31.334 54 68.001c5.33301 1.33301 11.333 -1 18 -7s11 -9.33301 13 -10c7.33301 -5.33301 18.666 -12 33.999 -20c6 -8.66699 13.667 -13 23 -13c11.333 18 26.333 37.333 45 58c16.667 -12 42.667 -28.667 78 -50
c2 -4.66699 1.33301 -8.66699 -2 -12c-16 -25.333 -33.333 -49.666 -52 -72.999c-23.333 8.66699 -49.333 26.667 -78 54z" />
    <glyph glyph-name="underscore.001" unicode="&#x62b;" horiz-adv-x="713" 
d="M333 296l-2.99902 -0.000976562c-8 -10 -15.667 -20.333 -23 -31c-10 -12 -20 -20.333 -30 -25c-12.667 1.33301 -26.334 7.33301 -41.001 18l-36 30c-3.33301 5.33301 -3.33301 9.66602 0 12.999c5.33301 8.66699 23.333 31.334 54 68.001
c5.33301 1.33301 11.333 -0.5 18 -5.5s11 -8.83301 13 -11.5c6.66699 -6 16.667 -14 30 -24c8.66699 -6 17.667 -9 27 -9c11.333 18 26.333 37.333 45 58c16.667 -12 42.667 -28.667 78 -50c2 -4.66699 1.33301 -8.66699 -2 -12c-16 -25.333 -33.333 -49.666 -52 -72.999
c-23.333 8.66699 -49.333 26.667 -78 54zM304.001 498.999l10 0.00195312c8.66699 -4 20.167 -11.667 34.5 -23s25.5 -19 33.5 -23c2.66699 -5.33301 3.66699 -8.66602 3 -9.99902c-12 -14.667 -30.667 -36.334 -56 -65.001c-6 -4 -10.667 -4.33301 -14 -1
c-25.333 13.333 -47.333 29.666 -66 48.999c4 8.66699 13 21.167 27 37.5s23.333 28.166 28 35.499zM708.001 235.001c-8.66699 -41.333 -28.166 -79.668 -58.499 -115.001s-65.166 -59 -104.499 -71c-106.667 -32.667 -212 -49 -316 -49c-52 -0 -101.667 4.33301 -149 13
c-40 7.33301 -63.333 26.333 -70 57c-3.33301 15.333 -5 32 -5 50c0 24.667 5 61.667 15 111c0.666992 2 1.5 3.83301 2.5 5.5s2.16699 2.5 3.5 2.5c6 0 9.66699 -2 11 -6c0 -16.667 0.333008 -33 1 -49c1.33301 -20 9.66602 -33 24.999 -39
c53.333 -21.333 138.666 -31.333 255.999 -30s214 15.333 290 42c36 12.667 64.333 39 85 79c1.33301 2.66699 4 4.33398 8 5.00098c4 0 6 -2 6 -6z" />
    <glyph glyph-name="grave.001" unicode="&#x62c;" horiz-adv-x="534" 
d="M217 252l0.999023 6c18.667 29.333 40.334 60.333 65.001 93l8 -2c32 -27.333 58.333 -46.333 79 -57c0.666992 -6.66699 -0.833008 -13 -4.5 -19l-10.5 -18c-8.66699 -14 -23.667 -34.333 -45 -61c-6.66699 -0.666992 -21.667 5 -45 17c-11.333 8 -27.333 21.667 -48 41
zM167.999 458l55.0039 59.999c0 2 -2.66699 4 -8 6c-72 4 -122.333 -1.66699 -151 -17c-6.66699 -3.33301 -13.334 -9.33301 -20.001 -18c-8 -12 -13 -19.333 -15 -22c-1.33301 -1.33301 -3 -1.66602 -5 -0.999023s-3.66699 1.66699 -5 3c-1.33301 6 0 14 4 24
c28 50.667 57.667 78.667 89 84c35.333 6 67.666 9 96.999 9c24 0 46 -2 66 -6l6 -3c7.33301 -5.33301 9 -12 5 -20c-12 -30 -24.333 -51.667 -37 -65l-104 -106c-42.667 -43.333 -71.667 -106.666 -87 -189.999c-4 -91.333 20 -150.333 72 -177
c27.333 -14 57.333 -21 90 -21c65.333 0 123.666 22.667 174.999 68s91 105.666 119 180.999c3.33301 6 7 7.66699 11 5c2.66699 -2 3 -7.66699 1 -17l-4 -18c-34.667 -118 -89.667 -209.333 -165 -274c-50 -43.333 -107 -65 -171 -65c-34.667 0 -66.334 7.66699 -95.001 23
c-57.333 38.667 -86 100.334 -86 185.001c0 33.333 4.66699 68 14 104c25.333 97.333 75 186.666 149 267.999z" />
    <glyph glyph-name="b.001" unicode="&#x62d;" horiz-adv-x="534" 
d="M168 458l55.0039 59.999c0 2 -2.66699 4 -8 6c-72 4 -122.333 -1.66699 -151 -17c-6.66699 -3.33301 -13.334 -9.33301 -20.001 -18c-8 -12 -13 -19.333 -15 -22c-1.33301 -1.33301 -3 -1.66602 -5 -0.999023s-3.66699 1.66699 -5 3c-1.33301 6 0 14 4 24
c28 50.667 57.667 78.667 89 84c35.333 6 67.666 9 96.999 9c24 0 46 -2 66 -6l6 -3c7.33301 -5.33301 9 -12 5 -20c-12 -30 -24.333 -51.667 -37 -65l-104 -106c-42.667 -43.333 -71.667 -106.666 -87 -189.999c-4 -91.333 20 -150.333 72 -177
c27.333 -14 57.333 -21 90 -21c65.333 0 123.666 22.667 174.999 68s91 105.666 119 180.999c3.33301 6 7 7.66699 11 5c2.66699 -2 3 -7.66699 1 -17l-4 -18c-34.667 -118 -89.667 -209.333 -165 -274c-50 -43.333 -107 -65 -171 -65c-34.667 0 -66.334 7.66699 -95.001 23
c-57.333 38.667 -86 100.334 -86 185.001c0 33.333 4.66699 68 14 104c25.333 97.333 75 186.666 149 267.999z" />
    <glyph glyph-name="c.001" unicode="&#x62e;" horiz-adv-x="534" 
d="M126 782l50.002 57.001l4 -2c13.333 -12.667 39.666 -34.334 78.999 -65.001c-0.666992 -7.33301 -3.83398 -14.833 -9.50098 -22.5l-16.5 -22.5c-8.66699 -11.333 -23 -26.666 -43 -45.999c-12 0 -32.333 11.333 -61 34l-28 29c1.33301 5.33301 5 11.666 11 18.999z
M168.002 458.001l55.0039 59.999c0 2 -2.66699 4 -8 6c-72 4 -122.333 -1.66699 -151 -17c-6.66699 -3.33301 -13.334 -9.33301 -20.001 -18c-8 -12 -13 -19.333 -15 -22c-1.33301 -1.33301 -3 -1.66602 -5 -0.999023s-3.66699 1.66699 -5 3c-1.33301 6 0 14 4 24
c28 50.667 57.667 78.667 89 84c35.333 6 67.666 9 96.999 9c24 0 46 -2 66 -6l6 -3c7.33301 -5.33301 9 -12 5 -20c-12 -30 -24.333 -51.667 -37 -65l-104 -106c-42.667 -43.333 -71.667 -106.666 -87 -189.999c-4 -91.333 20 -150.333 72 -177
c27.333 -14 57.333 -21 90 -21c65.333 0 123.666 22.667 174.999 68s91 105.666 119 180.999c3.33301 6 7 7.66699 11 5c2.66699 -2 3 -7.66699 1 -17l-4 -18c-34.667 -118 -89.667 -209.333 -165 -274c-50 -43.333 -107 -65 -171 -65c-34.667 0 -66.334 7.66699 -95.001 23
c-57.333 38.667 -86 100.334 -86 185.001c0 33.333 4.66699 68 14 104c25.333 97.333 75 186.666 149 267.999z" />
    <glyph glyph-name="e.001" unicode="&#x62f;" horiz-adv-x="251" 
d="M159 354l1.99805 4c3.33301 -0.666992 8.5 -3 15.5 -7s12.167 -7.33301 15.5 -10c36 -24.667 54 -60.334 54 -107.001c0 -27.333 -8.33301 -58 -25 -92c-12.667 -29.333 -27 -58 -43 -86c-13.333 -19.333 -36.666 -32.666 -69.999 -39.999c-27.333 -6 -55 -10 -83 -12
c-12 0 -18.333 0.5 -19 1.5s-1 2.16699 -1 3.5s0.666992 3 2 5l155 83c18.667 10 28.667 22.667 30 38c2 19.333 -2.66699 37.833 -14 55.5s-26.333 30.834 -45 39.501l-21 6c14.667 41.333 30.334 80.666 47.001 117.999z" />
    <glyph glyph-name="f.001" unicode="&#x630;" horiz-adv-x="260" 
d="M180 565l6.00098 -2c18.667 -18 41.667 -37 69 -57c-4 -9.33301 -10.5 -19.833 -19.5 -31.5s-17.833 -22.5 -26.5 -32.5l-10.5 -11c-3.66699 -4 -7.83398 -5.33301 -12.501 -4c-16.667 8.66699 -29 19 -37 31c-11.333 6 -22.333 15.667 -33 29
c22 31.333 43.333 57.333 64 78zM159.001 354l1.99805 4c3.33301 -0.666992 8.5 -3 15.5 -7s12.167 -7.33301 15.5 -10c36 -24.667 54 -60.334 54 -107.001c0 -27.333 -8.33301 -58 -25 -92c-12.667 -29.333 -27 -58 -43 -86
c-13.333 -19.333 -36.666 -32.666 -69.999 -39.999c-27.333 -6 -55 -10 -83 -12c-12 0 -18.333 0.5 -19 1.5s-1 2.16699 -1 3.5s0.666992 3 2 5l155 83c18.667 10 28.667 22.667 30 38c2 19.333 -2.66699 37.833 -14 55.5s-26.333 30.834 -45 39.501l-21 6
c14.667 41.333 30.334 80.666 47.001 117.999z" />
    <glyph glyph-name="g.001" unicode="&#x631;" horiz-adv-x="291" 
d="M76 17l-58.9951 -9.99902c-6 0 -9.66699 2 -11 6c-0.666992 6 3.66602 11.667 12.999 17l77 48c30 19.333 54.333 37.333 73 54c19.333 22 37.666 54.333 54.999 97l38 108c1.33301 5.33301 5.66602 8 12.999 8c6 0 9.33301 -2.66699 10 -8
c0.666992 -12.667 -5 -41.667 -17 -87c-20.667 -78.667 -45.334 -142.334 -74.001 -191.001c-10.667 -18 -28.334 -29 -53.001 -33c-22 -2.66699 -43.667 -5.66699 -65 -9z" />
    <glyph glyph-name="i.001" unicode="&#x632;" horiz-adv-x="301" 
d="M232 411l-4.99902 2.00098c-27.333 22.667 -48.333 43.334 -63 62.001c-1.33301 3.33301 0.166992 7.66602 4.5 12.999s6.83301 8.66602 7.5 9.99902c11.333 12 28.333 29 51 51l8 -1c12 -14 31 -32.667 57 -56l2 -5c1.33301 -2 1.33301 -4 0 -6
c-12.667 -16.667 -33.334 -40 -62.001 -70zM76.001 17.001l-58.9951 -9.99902c-6 0 -9.66699 2 -11 6c-0.666992 6 3.66602 11.667 12.999 17l77 48c30 19.333 54.333 37.333 73 54c19.333 22 37.666 54.333 54.999 97l38 108c1.33301 5.33301 5.66602 8 12.999 8
c6 0 9.33301 -2.66699 10 -8c0.666992 -12.667 -5 -41.667 -17 -87c-20.667 -78.667 -45.334 -142.334 -74.001 -191.001c-10.667 -18 -28.334 -29 -53.001 -33c-22 -2.66699 -43.667 -5.66699 -65 -9z" />
    <glyph glyph-name="k.001" unicode="&#x633;" horiz-adv-x="684" 
d="M570 447c-12 -28.667 -35.6719 -43.667 -71.0049 -45h-11c1.33301 -16.667 2 -33 2 -49c0 -115.333 -32 -225 -96 -329c-28 -46 -62 -82.333 -102 -109c-44.667 -29.333 -91.334 -42.666 -140.001 -39.999c-55.333 2.66699 -96.333 31.667 -123 87
c-16 32.667 -24 72.334 -24 119.001c0 44.667 8 100 24 166c4.66699 19.333 14.667 47.333 30 84c1.33301 3.33301 5 3.66602 11 0.999023c3.33301 -1.33301 3.33301 -8 0 -20c-18 -67.333 -27 -120 -27 -158c0 -44.667 10 -81.334 30 -110.001
c22 -30.667 57.333 -46 106 -46c48 -0.666992 95 13.333 141 42c41.333 26.667 74.833 63.5 100.5 110.5s38.834 98.167 39.501 153.5c0.666992 40 -2.66602 78.333 -9.99902 115c0.666992 16 4 39.667 10 71c1.33301 2.66699 4 4 8 4c4 -2 6 -5.33301 6 -10
s1.5 -8.16699 4.5 -10.5s9.5 -4.5 19.5 -6.5c8 -0.666992 14 -0.666992 18 0c18.667 2 33.334 11.333 44.001 28c2.66699 4.66699 5 9.83398 7 15.501s5.33301 8.16699 10 7.5c2.66699 -1.33301 4.66699 -4 6 -8c2 -5.33301 5.33301 -8 10 -8
c10.667 0 20.334 2.33301 29.001 7c12.667 8 24.334 22 35.001 42c2 4 4 8.33301 6 13c7.33301 11.333 12.333 10.666 15 -2.00098c0.666992 -8 0.333984 -16.333 -0.999023 -25c-4.66699 -29.333 -13 -50.333 -25 -63c-16.667 -20 -37 -30 -61 -30c-4 0 -7 1.33301 -9 4
s-4.33301 4 -7 4c-2 0 -3.66699 -1.66699 -5 -5z" />
    <glyph glyph-name="l.001" unicode="&#x634;" horiz-adv-x="692" 
d="M687 562c-0.666992 -23.333 -8.00391 -45.333 -22.0039 -66s-31.667 -35 -53 -43c-4 -0.666992 -10 -0.5 -18 0.5s-13.333 1.5 -16 1.5c-23.333 -36.667 -50.666 -55.334 -81.999 -56.001c2.66699 -110.667 -18.333 -214 -63 -310
c-28.667 -61.333 -65 -111.333 -109 -150c-53.333 -46.667 -110 -68.667 -170 -66c-27.333 1.33301 -53 11 -77 29s-41 40 -51 66c-14 35.333 -21 74 -21 116c0 58 17 136.667 51 236c2 4 5.66699 9 11 15c6 0 9 -1.33301 9 -4c-0.666992 -10.667 -3.33398 -24 -8.00098 -40
c-6 -20.667 -9.66699 -33.667 -11 -39c-8.66699 -46 -13 -81.667 -13 -107c0 -60 20 -102.333 60 -127c24 -15.333 52 -23 84 -23c50.667 0 99 16.333 145 49c89.333 62.667 134 150 134 262c0 11.333 -0.166992 22.333 -0.5 33s-2.16602 25 -5.49902 43s-5 31.333 -5 40
c0 8 0.833008 15.5 2.5 22.5s3.33398 14.667 5.00098 23s4.83398 14.833 9.50098 19.5c4.66699 0 7.33398 -3 8.00098 -9s2 -10.333 4 -13c6.66699 -2 13.334 -3 20.001 -3c19.333 0 35.333 7 48 21c1.33301 1.33301 9.33301 15 24 41c1.33301 4 4.33301 5 9 3
c2.66699 -11.333 8 -19 16 -23c7.33301 -3.33301 19 -0.666016 35 8.00098c9.33301 10 22.666 28.667 39.999 56c2.66699 1.33301 5 1.33301 7 0c2 -2 3 -4 3 -6zM547.996 676l-2.99805 -0.000976562l-25 -30c-10.667 -12.667 -21 -21 -31 -25c-12.667 2 -26 9 -40 21
l-34 31c-3.33301 5.33301 -3.33301 9.66602 0 12.999c2 3.33301 21.333 25 58 65c5.33301 -2 14.666 -8.66699 27.999 -20c22 -18 33.333 -27.333 34 -28l13 -10c1.33301 -0.666992 4.66602 1 9.99902 5c7.33301 10.667 23.333 29 48 55c16 -13.333 41 -31.666 75 -54.999
c2 -5.33301 1.33301 -9 -2 -11c-11.333 -15.333 -30.333 -38.666 -57 -69.999c-23.333 9.33301 -48 29 -74 59zM536.998 878.999l11.002 -1c14 -12 35.333 -28.333 64 -49c2.66699 -1.33301 4 -3.33301 4 -6c0 -1.33301 -0.333008 -2.66602 -1 -3.99902
c-22.667 -28 -42.334 -48.667 -59.001 -62c-5.33301 -4.66699 -10 -5 -14 -1c-26.667 16 -48.334 33.667 -65.001 53c14.667 15.333 34.667 38.666 60 69.999z" />
    <glyph glyph-name="m.001" unicode="&#x635;" horiz-adv-x="778" 
d="M756 650c11.333 -10.667 17.001 -24.6641 17.001 -41.9971c0 -14 -4 -31 -12 -51c-18 -45.333 -43.667 -84 -77 -116c-37.333 -36 -78 -56.333 -122 -61c-22 -2.66699 -40 -3 -54 -1c-0.666992 -2.66699 -1.66699 -11.667 -3 -27
c-10.667 -138.667 -53 -256.334 -127 -353.001c-62.667 -81.333 -134.334 -122 -215.001 -122c-8.66699 0 -17 0.333008 -25 1c-25.333 2.66699 -49 13.5 -71 32.5s-37.333 41.167 -46 66.5c-10.667 32 -16 66.333 -16 103c0 58.667 15.333 132 46 220
c3.33301 10 10 22.667 20 38c4.66699 0 7.33398 -1 8.00098 -3c-0.666992 -11.333 -3.33398 -25 -8.00098 -41c-6.66699 -21.333 -10.667 -35 -12 -41c-10 -47.333 -15 -84.333 -15 -111c0 -58 19.333 -99 58 -123c23.333 -14.667 51.333 -22 84 -22c48 0 94.333 14 139 42
c49.333 31.333 87 73.666 113 126.999c24.667 50 37 104.667 37 164c0 13.333 -0.666992 26.333 -2 39c0 8.66699 -1.66699 24 -5 46c-2.66699 19.333 -3.33398 34.666 -2.00098 45.999c0.666992 8.66699 4.33398 25 11.001 49c1.33301 1.33301 2.66602 2 3.99902 2
s3.5 -1.5 6.5 -4.5s5.16699 -4.5 6.5 -4.5c24.667 -4.66699 39.334 -7 44.001 -7c15.333 12.667 33 34 53 64c22.667 32.667 39.667 54.667 51 66c21.333 20.667 45.333 32.667 72 36c17.333 0 31.333 -4 42 -12zM716.001 607.003c-5.33301 1.33301 -10.667 2 -16 2
c-18.667 0 -37.667 -9.33301 -57 -28c-6.66699 -6.66699 -21 -24.667 -43 -54c-7.33301 -6.66699 -17.333 -18 -30 -34c51.333 -3.33301 94.333 8 129 34c24.667 18.667 37 35.667 37 51c0 11.333 -6.66699 21 -20 29z" />
    <glyph glyph-name="n.001" unicode="&#x636;" horiz-adv-x="776" 
d="M492 775l3.99902 7.99902l67 70h6c16 -15.333 40.333 -36.666 73 -63.999c0 -6 -2.16699 -11.833 -6.5 -17.5s-24.5 -26.5 -60.5 -62.5c-6.66699 -1.33301 -19 3.66699 -37 15c-16.667 14.667 -25.667 22.667 -27 24c-9.33301 9.33301 -15.666 18.333 -18.999 27z
M44.999 181.999l-1.00098 -1.99902c-4 -78 14.667 -130 56 -156c25.333 -16 55 -24 89 -24c44 0 86.667 12 128 36c48.667 28.667 87 68.667 115 120c25.333 48 39 101 41 159c1.33301 26.667 -1.66699 71.667 -9 135c4 27.333 8.66699 48.666 14 63.999
c2.66699 1.33301 4.83398 0.833008 6.50098 -1.5s3.5 -4.5 5.5 -6.5c12 -4 27 -7.33301 45 -10c16 14 37.333 39.667 64 77c25.333 34.667 47.333 59.334 66 74.001c14.667 11.333 31.667 17 51 17c26 0 43.333 -10 52 -30c2 -8.66699 3 -17.334 3 -26.001
c0 -26 -13 -61 -39 -105c-37.333 -62.667 -85 -101 -143 -115c-28 -6.66699 -55.333 -8.66699 -82 -6l-1 -8c-20.667 -166.667 -65.334 -293.334 -134.001 -380.001c-63.333 -79.333 -136.666 -118 -219.999 -116c-26.667 0.666992 -51.334 9.33398 -74.001 26.001
s-39.667 37.334 -51 62.001c-14.667 32 -22 70 -22 114c0 31.333 4 68 12 110c8.66699 44.667 24.334 93 47.001 145c5.33301 5.33301 10 7 14 5c1.33301 -2.66699 1.33301 -8.33398 0 -17.001c-17.333 -48.667 -28.333 -95.667 -33 -141zM570.998 495h3
c75.333 0 128.666 23.667 159.999 71c4 14 2.33301 25.333 -5 34c-10 7.33301 -21.333 11 -34 11c-23.333 -3.33301 -45.666 -18.333 -66.999 -45c-35.333 -42.667 -54 -64.667 -56 -66z" />
    <glyph glyph-name="o.001" unicode="&#x637;" horiz-adv-x="370" 
d="M174 190l0.996094 -2.00195c52 49.333 99 71.666 141 66.999c21.333 -2.66699 37 -14 47 -34c1.33301 -7.33301 2 -14.666 2 -21.999c0 -34 -17.667 -71.667 -53 -113c-23.333 -27.333 -51.666 -47.666 -84.999 -60.999c-51.333 -14 -102.333 -21 -153 -21
c-17.333 0 -34.666 1 -51.999 3c-4.66699 0 -10 2.33301 -16 7c-0.666992 1.33301 -0.5 3.33301 0.5 6s1.5 4.33398 1.5 5.00098c5.33301 4 13 7.33301 23 10c12.667 3.33301 20.667 5.66602 24 6.99902c14 12 38 41 72 87c12 35.333 19 78 21 128
c0 42.667 0.333008 85.667 1 129c0.666992 28 1.33398 45 2.00098 51c2 18.667 7 34 15 46l37 86c1.33301 4 4 6.33301 8 7c4 1.33301 6.66699 0 8 -4c0.666992 -5.33301 -0.166016 -13.333 -2.49902 -24s-3.5 -18 -3.5 -22c-4.66699 -33.333 -7.66699 -75.666 -9 -126.999
c-2.66699 -60 -5 -102 -7 -126c-4 -18 -11.667 -45.667 -23 -83zM300.996 176.998c-8.66699 14 -21.667 19.334 -39 16.001c-30.667 -6 -60 -24.333 -88 -55l-68 -83l100 22c37.333 11.333 66.333 28.333 87 51c8.66699 15.333 13 26.666 13 33.999c0 6 -1.66699 11 -5 15z
" />
    <glyph glyph-name="p.001" unicode="&#x638;" horiz-adv-x="409" 
d="M337 478c21.333 -24.667 43.668 -45.334 67.001 -62.001v-13l-65 -65c-3.33301 -1.33301 -6.83301 -0.833008 -10.5 1.5l-10.5 6.5c-16.667 14 -34.667 32 -54 54c-1.33301 4 -0.333008 7.5 3 10.5s6.66602 5.83301 9.99902 8.5c7.33301 7.33301 17 18.333 29 33
c6.66699 6.66699 17 15.334 31 26.001zM174.002 190l0.996094 -2.00195c52 49.333 99 71.666 141 66.999c21.333 -2.66699 37 -14 47 -34c1.33301 -7.33301 2 -14.666 2 -21.999c0 -34 -17.667 -71.667 -53 -113c-23.333 -27.333 -51.666 -47.666 -84.999 -60.999
c-51.333 -14 -102.333 -21 -153 -21c-17.333 0 -34.666 1 -51.999 3c-4.66699 0 -10 2.33301 -16 7c-0.666992 1.33301 -0.5 3.33301 0.5 6s1.5 4.33398 1.5 5.00098c5.33301 4 13 7.33301 23 10c12.667 3.33301 20.667 5.66602 24 6.99902c14 12 38 41 72 87
c12 35.333 19 78 21 128c0 42.667 0.333008 85.667 1 129c0.666992 28 1.33398 45 2.00098 51c2 18.667 7 34 15 46l37 86c1.33301 4 4 6.33301 8 7c4 1.33301 6.66699 0 8 -4c0.666992 -5.33301 -0.166016 -13.333 -2.49902 -24s-3.5 -18 -3.5 -22
c-4.66699 -33.333 -7.66699 -75.666 -9 -126.999c-2.66699 -60 -5 -102 -7 -126c-4 -18 -11.667 -45.667 -23 -83zM300.998 176.998c-8.66699 14 -21.667 19.334 -39 16.001c-30.667 -6 -60 -24.333 -88 -55l-68 -83l100 22c37.333 11.333 66.333 28.333 87 51
c8.66699 15.333 13 26.666 13 33.999c0 6 -1.66699 11 -5 15z" />
    <glyph glyph-name="q.001" unicode="&#x639;" horiz-adv-x="533" 
d="M140 434l-1.99902 2.00195c-27.333 14 -42.666 22 -45.999 24c-16.667 10.667 -27 23.334 -31 38.001c0.666992 10.667 4.66699 22.334 12 35.001l20 32l55 80c24 30 50 47.667 78 53c14 0 24.333 -2.66699 31 -8c9.33301 -7.33301 14 -15.333 14 -24
c0 -4 -1 -7.66699 -3 -11c-1.33301 -6 -4.33301 -10.333 -9 -13c-5.33301 0 -13 1.83301 -23 5.5s-18 5.5 -24 5.5c-20 0 -41 -18 -63 -54c-4 -10.667 -4 -18.334 0 -23.001c17.333 -20.667 44.333 -32.334 81 -35.001c10 2.66699 23.333 11 40 25
c13.333 11.333 34 27 62 47c3.33301 1.33301 5 -0.333984 5 -5.00098l-2 -8l-48 -69c-152.667 -123.333 -229 -240.666 -229 -351.999c0 -33.333 4.83301 -64.5 14.5 -93.5s29.167 -50.833 58.5 -65.5c24.667 -12.667 53 -19 85 -19c102 0 185 50 249 150
c18.667 30 34.667 62.333 48 97c3.33301 4.66699 6.66602 7 9.99902 7c3.33301 -4.66699 4.33301 -10.334 3 -17.001c-22 -100.667 -68 -189 -138 -265c-56.667 -62 -123.334 -93 -200.001 -93c-31.333 0 -61 6 -89 18c-62.667 35.333 -94 99.666 -94 192.999
c0 74 25.667 158.667 77 254c4 6 8.66699 14.667 14 26c13.333 21.333 28 42.333 44 63z" />
    <glyph glyph-name="r.001" unicode="&#x63a;" horiz-adv-x="532" 
d="M127 822l2.99902 7.99805c18 22 43.333 48.667 76 80l6 -1c17.333 -19.333 41 -41.666 71 -66.999c2 -3.33301 -0.333008 -10.666 -7 -21.999l-32 -37c-13.333 -14 -25.666 -24.333 -36.999 -31c-10 2.66699 -25.333 13 -46 31c-8 8 -19.333 21 -34 39zM140.999 437.998
c-44.667 17.333 -71.002 37.3311 -79.002 59.998c-0.666992 10 2.33301 21.333 9 34c6.66699 10 13 20.333 19 31l58 84c24.667 31.333 51.667 49.333 81 54c14.667 0 25 -3 31 -9c10 -12 12.667 -23.333 8 -34c-2.66699 -7.33301 -5.66699 -11.666 -9 -12.999
c-5.33301 0.666992 -13.166 2.5 -23.499 5.5s-18.166 4.5 -23.499 4.5c-4.66699 0 -9.33398 -0.666992 -14.001 -2c-20.667 -10.667 -37 -28.667 -49 -54c-4.66699 -9.33301 -3.33398 -18.333 3.99902 -27c22.667 -18 45.334 -27 68.001 -27c8 0 16 1.33301 24 4
c18 16 46.333 38.333 85 67c2.66699 0.666992 5.33398 -2 8.00098 -8l-50 -74c-74.667 -61.333 -129.667 -117.333 -165 -168c-48 -69.333 -69.333 -141 -64 -215c4.66699 -62.667 26.334 -104.667 65.001 -126c28 -15.333 59 -23 93 -23c66.667 0 126.5 23.5 179.5 70.5
s91.833 106.833 116.5 179.5c3.33301 4 7 6 11 6c0.666992 -3.33301 1.66699 -8.66602 3 -15.999c-32.667 -129.333 -90.667 -229 -174 -299c-48.667 -41.333 -104.334 -62 -167.001 -62c-34.667 0 -65.667 7.66699 -93 23c-58.667 32 -88 94.333 -88 187
c0 109.333 45.333 225 136 347z" />
    <glyph glyph-name="D.001" unicode="&#x640;" horiz-adv-x="385" 
d="M45 316h325l-27 -62h-328z" />
    <glyph glyph-name="s.001" unicode="&#x641;" horiz-adv-x="731" 
d="M579 569l65.001 79h7c10.667 -10 35.667 -30.667 75 -62l-1 -9c-12.667 -16 -33 -39.333 -61 -70c-2.66699 -0.666992 -5.33398 -1 -8.00098 -1c-6 0 -17.667 5.66699 -35 17c-10 8.66699 -24 22 -42 40v6zM717.001 362c4.66699 -20 6.99902 -40.001 6.99902 -60.001
c0 -46 -11.167 -89.833 -33.5 -131.5s-52.833 -76.167 -91.5 -103.5c-69.333 -37.333 -163.333 -60 -282 -68c-103.333 -6.66699 -186 -2 -248 14c-28 7.33301 -46.667 21.333 -56 42c-5.33301 18 -8 37.667 -8 59c0 22.667 5 60.334 15 113.001c1.33301 6 4.33301 9 9 9
c5.33301 0 8 -2 8 -6v-52c2 -19.333 10.667 -32 26 -38c59.333 -22 156 -31.667 290 -29c116.667 2.66699 206 16.334 268 41.001c30.667 12.667 52.334 33 65.001 61c0 21.333 -4 34.333 -12 39c-36.667 -2.66699 -61.667 1.33301 -75 12
c-13.333 13.333 -17.333 28.666 -12 45.999c7.33301 20 16 49 26 87c5.33301 10.667 9.33301 17.667 12 21c5.33301 7.33301 11.666 12.333 18.999 15c10.667 3.33301 24.334 -0.666992 41.001 -12c16 -16 26.667 -35.667 32 -59z" />
    <glyph glyph-name="t.001" unicode="&#x642;" horiz-adv-x="523" 
d="M370 700h4.00098l50 60h4c28.667 -23.333 54 -42 76 -56c3.33301 -1.33301 4 -6.33301 2 -15l-53 -67c-3.33301 -6.66699 -10 -8.66699 -20 -6c-28.667 12.667 -53.334 31.667 -74.001 57c-10 -12.667 -26 -31.667 -48 -57c-4 -2.66699 -8.33301 -4 -13 -4
c-6 0 -12.667 2.33301 -20 7s-14.333 9.5 -21 14.5l-21.5 16.5c-7.66699 6 -13.167 12.667 -16.5 20l2 6l60 81l13 -3c16.667 -13.333 42 -31.333 76 -54zM518.001 364c0 -60.667 -13.998 -131.333 -41.998 -212c-28.667 -82.667 -68.334 -146.667 -119.001 -192
c-62.667 -56 -123.334 -84 -182.001 -84c-17.333 0 -34.666 2.33301 -51.999 7c-29.333 8 -54.333 26 -75 54c-19.333 26 -31.666 54.333 -36.999 85c-4 21.333 -6 44 -6 68c0 58 14 132.667 42 224c2 6.66699 7.66699 14.667 17 24c2.66699 0 5.33398 -2 8.00098 -6
l-18 -88c-7.33301 -34 -11 -64 -11 -90c0 -60 18.333 -103.333 55 -130c23.333 -17.333 52.333 -26 87 -26c43.333 0 85.666 11.667 126.999 35c70.667 40 122 104.667 154 194c11.333 31.333 17 58.666 17 81.999c0 8 -0.666992 15.667 -2 23c-2 12 -7 19.333 -15 22
c-12.667 -4.66699 -25 -7 -37 -7c-14 0 -25.667 3.33301 -35 10c-12 10.667 -18 23.667 -18 39c0 8.66699 2.66699 22.334 8 41.001s7.66602 32.667 6.99902 42c5.33301 38.667 19.666 58 42.999 58c13.333 0 27.333 -8.33301 42 -25c28 -32 42 -81.333 42 -148z" />
    <glyph glyph-name="w.001" unicode="&#x644;" horiz-adv-x="502" 
d="M497 805c-7.33301 -44 -8.66699 -133.334 -4 -268.001c2 -52 3 -91.667 3 -119c0 -95.333 -9.33301 -175.666 -28 -240.999c-23.333 -83.333 -61 -153.666 -113 -210.999c-55.333 -61.333 -115 -92 -179 -92c-21.333 0 -42.333 4 -63 12c-72 27.333 -106.333 95 -103 203
c2.66699 78 21 158 55 240c4.66699 7.33301 9.33398 9.33301 14.001 6c1.33301 -2.66699 1.33301 -9.66699 0 -21c-19.333 -63.333 -29 -116 -29 -158c0 -26 3.33301 -50.333 10 -73c12.667 -42.667 40 -69 82 -79c15.333 -3.33301 31 -5 47 -5c48 0 97.667 15.333 149 46
c71.333 58.667 109 119.667 113 183c1.33301 22.667 2 47 2 73c0 36 -1.66699 85.667 -5 149c-4 68.667 -6.33301 117.667 -7 147c-0.666992 55.333 -1 82.666 -1 81.999c1.33301 32 8.66602 58 21.999 78c9.33301 27.333 19 47 29 59c2.66699 0 4.66699 -3.66699 6 -11z
" />
    <glyph glyph-name="x.001" unicode="&#x645;" horiz-adv-x="371" 
d="M364 411l-1.99609 0.000976562c2.66699 -4.66699 2.66699 -10.334 0 -17.001c-5.33301 -16 -10 -27.333 -14 -34c-6 -12 -13.333 -21.667 -22 -29c-0.666992 -0.666992 -7.66699 -6 -21 -16c-15.333 -6.66699 -43 -13.667 -83 -21c-36.667 -6.66699 -64 -15 -82 -25
c-50 -20.667 -78.667 -46.667 -86 -78c-4.66699 -20 -7.33398 -46.333 -8.00098 -79l-2 -82l3 -102c1.33301 -23.333 -2.33398 -101 -11.001 -233c-0.666992 -10.667 -4.66699 -25 -12 -43c-2.66699 -1.33301 -5.66699 -0.333008 -9 3c0 118.667 -3.33301 238 -10 358
c2.66699 63.333 7 109 13 137c10 52 28.667 93.667 56 125c33.333 47.333 78.666 82.333 135.999 105c16 30.667 34.667 62.667 56 96c19.333 -8 46.666 -22.333 81.999 -43c2.66699 -2.66699 8 -10 16 -22z" />
    <glyph glyph-name="y.001" unicode="&#x646;" horiz-adv-x="518" 
d="M81 364l3.00195 -2.99512c-8 -30 -18.667 -75.667 -32 -137c-4 -22.667 -6 -44 -6 -64c0 -68.667 22.667 -115.334 68 -140.001c28 -15.333 59 -23 93 -23c52 0 102.333 15.667 151 47c51.333 32.667 84.666 73 99.999 121c2.66699 17.333 4 37.666 4 60.999
c0 8 -1 36.333 -3 85c-1.33301 34.667 -1 62.667 1 84c9.33301 36 22 72.667 38 110c4.66699 4.66699 9 5 13 1c1.33301 -12 0.666016 -44.333 -2.00098 -97l-2 -118c-2 -46.667 -7.33301 -84.334 -16 -113.001c-24 -76.667 -60.333 -143.334 -109 -200.001
c-40 -38 -84 -65.333 -132 -82c-27.333 -9.33301 -55.333 -14 -84 -14c-32 0 -59.667 6 -83 18c-52 34 -78 96 -78 186c0 50.667 8.33301 107 25 169c0 4.66699 1.5 10.667 4.5 18s4.5 12.666 4.5 15.999c5.33301 16.667 15.333 40.667 30 72
c4.66699 6.66699 8.66699 7.66699 12 3zM179.002 257.005l70 74l6 2c20 -23.333 44.333 -46.333 73 -69c-14.667 -16.667 -38 -40.667 -70 -72c-12 2 -24.167 8.5 -36.5 19.5s-23.833 21.833 -34.5 32.5z" />
    <glyph glyph-name="z.001" unicode="&#x648;" horiz-adv-x="231" 
d="M219 192c-4.66699 -32.667 -22 -76.002 -52 -130.002c-8 -14.667 -22 -24.667 -42 -30c-16.667 -4 -33.667 -8.33301 -51 -13c-12.667 -4 -32 -9.66699 -58 -17c-6 0 -9.66699 2 -11 6c0 4.66699 4.33301 9.66699 13 15l80 47c29.333 18.667 54.333 37.667 75 57
c6 8 8 19 6 33c-4 10 -8.66699 16.667 -14 20c-6.66699 -1.33301 -13 -2 -19 -2c-24 0 -42 8.33301 -54 25c-4.66699 8 -7 16.333 -7 25c0 9.33301 3 21 9 35c5.33301 10.667 10.333 21.834 15 33.501s9 24.167 13 37.5c7.33301 14.667 17 24.334 29 29.001
c22 4 39.667 -5 53 -27c14.667 -24.667 22 -54 22 -88c0 -18 -2.33301 -36.667 -7 -56z" />
    <glyph glyph-name="F.002" unicode="&#x64b;" 
d="M65 1458l151.999 120.002c2.66699 0 4.33398 -1 5.00098 -3c0.666992 -1.33301 0.5 -3.83301 -0.5 -7.5s-1.5 -6.16699 -1.5 -7.5c0 -14 -8 -26.667 -24 -38c-24.667 -18 -37.667 -28 -39 -30c-22 -16.667 -53.667 -42.334 -95 -77.001
c-5.33301 -2.66699 -8 -1.33398 -8 3.99902c1.33301 7.33301 5 20.333 11 39zM44.999 1538l151.999 120.002c2.66699 0 4.33398 -1 5.00098 -3c0.666992 -1.33301 0.5 -3.83301 -0.5 -7.5s-1.5 -6.16699 -1.5 -7.5c0 -14 -8 -26.667 -24 -38
c-24.667 -18 -37.667 -28 -39 -30c-22 -16.667 -53.667 -42.334 -95 -77.001c-5.33301 -2.66699 -8 -1.33398 -8 3.99902c1.33301 7.33301 5 20.333 11 39z" />
    <glyph glyph-name="E.002" unicode="&#x64c;" 
d="M242 1592c6 -6.66699 8.99902 -15.668 8.99902 -27.001c0 -8.66699 -2.33301 -20.667 -7 -36c-10 -30 -31.333 -55.667 -64 -77c-15.333 -10 -45.333 -24.667 -90 -44c-12 -2.66699 -19.333 -3.66699 -22 -3c-2 2.66699 -0.666992 6.33398 4 11.001
c24 14 49.333 30 76 48c-2.66699 70 18 114.667 62 134c4.66699 3.33301 10.334 4.33301 17.001 3c7.33301 -1.33301 12.333 -4.33301 15 -9zM219.999 1552c-3.33301 4 -7.33203 5.99902 -11.999 5.99902c-6.66699 0 -13.334 -3.66699 -20.001 -11
c-12.667 -14 -19 -29.667 -19 -47c0 -6 1 -12 3 -18c29.333 16 46.333 32.667 51 50c2.66699 4.66699 1.66699 11.334 -3 20.001zM34 1465c-6 6.66699 -8.99902 15.668 -8.99902 27.001c0 8.66699 2.33301 20.667 7 36c10 30 31.333 55.667 64 77
c15.333 10 45.333 24.667 90 44c12 2.66699 19.333 3.66699 22 3c2 -2.66699 0.666992 -6.33398 -4 -11.001c-24 -14 -49.333 -30 -76 -48c2.66699 -70 -18 -114.667 -62 -134c-4.66699 -3.33301 -10.334 -4.33301 -17.001 -3c-7.33301 1.33301 -12.333 4.33301 -15 9z
M56.001 1505c3.33301 -4 7.33203 -5.99902 11.999 -5.99902c6.66699 0 13.334 3.66699 20.001 11c12.667 14 19 29.667 19 47c0 6 -1 12 -3 18c-29.333 -16 -46.333 -32.667 -51 -50c-2.66699 -4.66699 -1.66699 -11.334 3 -20.001z" />
    <glyph glyph-name="F.003" unicode="&#x64d;" 
d="M35 -419l151.999 120.002c2.66699 0 4.33398 -1 5.00098 -3c0.666992 -1.33301 0.5 -3.83301 -0.5 -7.5s-1.5 -6.16699 -1.5 -7.5c0 -14 -8 -26.667 -24 -38c-24.667 -18 -37.667 -28 -39 -30c-22 -16.667 -53.667 -42.334 -95 -77.001
c-5.33301 -2.66699 -8 -1.33398 -8 3.99902c1.33301 7.33301 5 20.333 11 39zM14.999 -338.998l151.999 120.002c2.66699 0 4.33398 -1 5.00098 -3c0.666992 -1.33301 0.5 -3.83301 -0.5 -7.5s-1.5 -6.16699 -1.5 -7.5c0 -14 -8 -26.667 -24 -38
c-24.667 -18 -37.667 -28 -39 -30c-22 -16.667 -53.667 -42.334 -95 -77.001c-5.33301 -2.66699 -8 -1.33398 -8 3.99902c1.33301 7.33301 5 20.333 11 39z" />
    <glyph glyph-name="F.001" unicode="&#x64e;" 
d="M52 1501l151.999 120.002c2.66699 0 4.33398 -1 5.00098 -3c0.666992 -1.33301 0.5 -3.83301 -0.5 -7.5s-1.5 -6.16699 -1.5 -7.5c0 -14 -8 -26.667 -24 -38c-24.667 -18 -37.667 -28 -39 -30c-22 -16.667 -53.667 -42.334 -95 -77.001
c-5.33301 -2.66699 -8 -1.33398 -8 3.99902c1.33301 7.33301 5 20.333 11 39z" />
    <glyph glyph-name="E.001" unicode="&#x64f;" 
d="M213 1607c6 -6.66699 8.99902 -15.668 8.99902 -27.001c0 -8.66699 -2.33301 -20.667 -7 -36c-10 -30 -31.333 -55.667 -64 -77c-15.333 -10 -45.333 -24.667 -90 -44c-12 -2.66699 -19.333 -3.66699 -22 -3c-2 2.66699 -0.666992 6.33398 4 11.001
c24 14 49.333 30 76 48c-2.66699 70 18 114.667 62 134c4.66699 3.33301 10.334 4.33301 17.001 3c7.33301 -1.33301 12.333 -4.33301 15 -9zM190.999 1567c-3.33301 4 -7.33203 5.99902 -11.999 5.99902c-6.66699 0 -13.334 -3.66699 -20.001 -11
c-12.667 -14 -19 -29.667 -19 -47c0 -6 1 -12 3 -18c29.333 16 46.333 32.667 51 50c2.66699 4.66699 1.66699 11.334 -3 20.001z" />
    <glyph glyph-name="G.001" unicode="&#x650;" 
d="M30 -426l153.999 119.998c2.66699 0 4 -1 4 -3c0 -1.33301 -0.5 -3.66602 -1.5 -6.99902s-1.5 -5.66602 -1.5 -6.99902c0 -14 -7.66699 -27 -23 -39c-24 -18 -37 -28 -39 -30c-26.667 -20 -58.667 -45.667 -96 -77c-5.33301 -3.33301 -8 -2 -8 4
c2.66699 8.66699 6.33398 21.667 11.001 39z" />
    <glyph glyph-name="H.001" unicode="&#x651;" 
d="M221 1625c6 -31.333 9.00195 -56.3311 9.00195 -74.998c0 -37.333 -10.333 -65.333 -31 -84c-13.333 -15.333 -31 -18.333 -53 -9c-8.66699 6.66699 -14.334 14.334 -17.001 23.001c-16 -23.333 -31.333 -35 -46 -35c-13.333 0 -26 8 -38 24
c-4.66699 11.333 -7 23.666 -7 36.999c0 26 8.33301 54.333 25 85c2 6 5 7.66699 9 5s5 -7.66699 3 -15c-7.33301 -29.333 -11 -48.333 -11 -57c0 -12.667 2.5 -22.167 7.5 -28.5s11.833 -9.5 20.5 -9.5c13.333 2 23 10 29 24l14 35c3.33301 1.33301 6 -0.666992 8 -6
c1.33301 -13.333 2.66602 -21.333 3.99902 -24c2.66699 -8.66699 7.66699 -15.334 15 -20.001c14 -6 25.167 -4.83301 33.5 3.5s12.5 20.166 12.5 35.499c0 1.33301 -3 20.333 -9 57c4.66699 8.66699 12 20 22 34z" />
    <glyph glyph-name="W.001" unicode="&#x653;" 
d="M376 1630c-22 -61.333 -58.668 -110 -110.001 -146c-26 -18 -52.667 -27 -80 -27c-13.333 0 -26 2.33301 -38 7c-2 0.666992 -5.83301 3.16699 -11.5 7.5s-10.167 6.5 -13.5 6.5c-2 0 -4.33301 -0.666992 -7 -2c-17.333 -9.33301 -36.666 -28 -57.999 -56
c-2.66699 -2 -7.33398 -3 -14.001 -3c-2 2 -2 8.33301 0 19c34 66 72 113.333 114 142c4.66699 4 9.66699 6 15 6s12.333 -2.5 21 -7.5s14.667 -7.83301 18 -8.5c12.667 -4.66699 25.667 -7 39 -7c26.667 0 49.334 8 68.001 24c10 12.667 26 29.667 48 51
c6 3.33301 9 1.33301 9 -6z" />
    <glyph glyph-name="Y.003" unicode="&#x654;" 
d="M51 1542c2 6.66699 5.33203 12.9971 9.99902 18.9971c12.667 15.333 24.667 30.666 36 45.999c13.333 16 27.666 26.667 42.999 32c15.333 4.66699 26.666 1.66699 33.999 -9c2 -3.33301 2 -8.66602 0 -15.999c-2.66699 -5.33301 -6 -8.66602 -10 -9.99902
c-4.66699 -1.33301 -10.334 -0.166016 -17.001 3.50098s-12.334 4.5 -17.001 2.5c-14 -3.33301 -22.333 -13.666 -25 -30.999c0 -10.667 6.66699 -19.334 20 -26.001c5.33301 -1.33301 10.333 -2 15 -2c9.33301 0 20 4 32 12c16.667 11.333 26.834 17.833 30.501 19.5
s7.16699 2.16699 10.5 1.5c0.666992 -1.33301 -0.333008 -4.66602 -3 -9.99902c-2.66699 -4 -15.667 -16.333 -39 -37c-6.66699 -4 -17 -12.333 -31 -25c-15.333 -13.333 -36.666 -34 -63.999 -62c-10 -10.667 -18.333 -19 -25 -25c-6 0 -9 1.66699 -9 5
c0.666992 9.33301 5.33398 19 14.001 29c6.66699 7.33301 13.334 15.333 20.001 24l9 12c-8 4 -12.667 6.66699 -14 8c-5.33301 3.33301 -9.66602 7.33301 -12.999 12c-4.66699 4.66699 -7 13.667 -7 27z" />
    <glyph glyph-name="Y.002" unicode="&#x655;" 
d="M30 -356c2 6.66699 5.33203 12.9971 9.99902 18.9971c12.667 15.333 24.667 30.666 36 45.999c13.333 16 27.666 26.667 42.999 32c15.333 4.66699 26.666 1.66699 33.999 -9c2 -3.33301 2 -8.66602 0 -15.999c-2.66699 -5.33301 -6 -8.66602 -10 -9.99902
c-4.66699 -1.33301 -10.334 -0.166016 -17.001 3.50098s-12.334 4.5 -17.001 2.5c-14 -3.33301 -22.333 -13.666 -25 -30.999c0 -10.667 6.66699 -19.334 20 -26.001c5.33301 -1.33301 10.333 -2 15 -2c9.33301 0 20 4 32 12c16.667 11.333 26.834 17.833 30.501 19.5
s7.16699 2.16699 10.5 1.5c0.666992 -1.33301 -0.333008 -4.66602 -3 -9.99902c-2.66699 -4 -15.667 -16.333 -39 -37c-6.66699 -4 -17 -12.333 -31 -25c-15.333 -13.333 -36.666 -34 -63.999 -62c-10 -10.667 -18.333 -19 -25 -25c-6 0 -9 1.66699 -9 5
c0.666992 9.33301 5.33398 19 14.001 29c6.66699 7.33301 13.334 15.333 20.001 24l9 12c-8 4 -12.667 6.66699 -14 8c-5.33301 3.33301 -9.66602 7.33301 -12.999 12c-4.66699 4.66699 -7 13.667 -7 27z" />
    <glyph glyph-name="G.002" unicode="&#x656;" 
d="M128 -393l1 -2c0 -37.333 -6.66699 -62.666 -20 -75.999c-4.66699 -1.33301 -7.66699 0.666992 -9 6c2 24.667 0.666992 47.667 -4 69c-5.33301 27.333 -8.33301 50.333 -9 69c4 14.667 9.33301 37 16 67c1.33301 3.33301 5 4.33301 11 3l4 -11
c2.66699 -20.667 6 -62.334 10 -125.001z" />
    <glyph glyph-name="E.003" unicode="&#x657;" 
d="M47 1434c-6 6.66699 -8.99902 15.668 -8.99902 27.001c0 8.66699 2.33301 20.667 7 36c10 30 31.333 55.667 64 77c15.333 10 45.333 24.667 90 44c12 2.66699 19.333 3.66699 22 3c2 -2.66699 0.666992 -6.33398 -4 -11.001c-24 -14 -49.333 -30 -76 -48
c2.66699 -70 -18 -114.667 -62 -134c-4.66699 -3.33301 -10.334 -4.33301 -17.001 -3c-7.33301 1.33301 -12.333 4.33301 -15 9zM69.001 1474c3.33301 -4 7.33203 -5.99902 11.999 -5.99902c6.66699 0 13.334 3.66699 20.001 11c12.667 14 19 29.667 19 47c0 6 -1 12 -3 18
c-29.333 -16 -46.333 -32.667 -51 -50c-2.66699 -4.66699 -1.66699 -11.334 3 -20.001z" />
    <glyph glyph-name="percent.002" unicode="&#x66a;" horiz-adv-x="329" 
d="M143 501c-11.333 -17.333 -26.332 -26 -44.999 -26c-20 0 -34.333 7 -43 21c-6 9.33301 -9 19.333 -9 30c0 13.333 4.83301 25 14.5 35s21.167 15.333 34.5 16c20 0.666992 35.167 -7.33301 45.5 -24s11.166 -34 2.49902 -52zM122.001 543
c-5.33301 8 -14.333 11.999 -27 11.999c-12 -1.33301 -20 -7.33301 -24 -18c-4 -11.333 -1.66699 -21.666 7 -30.999s18.667 -11.333 30 -6c7.33301 0.666992 13 6.66699 17 18c1.33301 12 0.333008 20.333 -3 25zM15.001 237.999l197 231l72 86l30 -62l-268 -319h-2z
M280.001 229.999c4.66699 -9.33301 7.00098 -19 7.00098 -29c0 -7.33301 -1.33301 -14.333 -4 -21c-10.667 -20.667 -26.667 -31 -48 -31s-36.333 10 -45 30c-7.33301 16 -5.83301 32 4.5 48s24.166 24 41.499 24c15.333 0 30 -7 44 -21zM253.002 221.999
c-6.66699 5.33301 -13.334 7.99902 -20.001 7.99902c-12 -2 -19.667 -8.33301 -23 -19c-4 -12.667 -1 -24 9 -34c8.66699 -4.66699 17 -6 25 -4c8.66699 0.666992 15.334 7.33398 20.001 20.001c2.66699 9.33301 -1 19 -11 29z" />
    <glyph glyph-name="less.002" unicode="&#x66d;" horiz-adv-x="329" 
d="M46 456l5 -1l114 -138l6 4l112 134h3c6.66699 -14 16 -34.667 28 -62l-107 -127l105 -129v-5l-27 -57l-5 3l-113 138h-3l-118 -140h-2l-29 62l108 128l-105 128z" />
    <glyph glyph-name="G.003" unicode="&#x670;" 
d="M104 1506l1 -2c0 -37.333 -6.66699 -62.666 -20 -75.999c-4.66699 -1.33301 -7.66699 0.666992 -9 6c2 24.667 0.666992 47.667 -4 69c-5.33301 27.333 -8.33301 50.333 -9 69c4 14.667 9.33301 37 16 67c1.33301 3.33301 5 4.33301 11 3l4 -11
c2.66699 -20.667 6 -62.334 10 -125.001z" />
    <glyph glyph-name="asciicircum.001" unicode="&#x679;" horiz-adv-x="713" 
d="M347 455l26.999 37.998l6 -1c0.666992 -4.66699 0.333984 -10.334 -0.999023 -17.001c-1.33301 -9.33301 -2 -15 -2 -17l-2 -54c-2 -21.333 -5.66699 -39 -11 -53c4 0.666992 9 3.5 15 8.5s10.333 7.83301 13 8.5c22 7.33301 38.5 6.5 49.5 -2.5s14.167 -22.5 9.5 -40.5
c-24 -42.667 -49.333 -66.667 -76 -72c-22 -1.33301 -53.667 -5 -95 -11c-6.66699 0 -11.334 1.33301 -14.001 4c0.666992 10.667 9.33398 18.334 26.001 23.001c30.667 37.333 46 68 46 92c2 8.66699 3 24.334 3 47.001c-0.666992 20.667 1.33301 36.334 6 47.001z
M330.999 277.998l0.00195312 -3.00098c21.333 4 34.666 6.66699 39.999 8c14.667 4.66699 26 11.334 34 20.001c5.33301 7.33301 7.66602 14.333 6.99902 21l-6 6c-4 1.33301 -8 2 -12 2c-12 0 -23.167 -6.16699 -33.5 -18.5zM708.001 234.997
c-8.66699 -41.333 -28.166 -79.668 -58.499 -115.001s-65.166 -59 -104.499 -71c-106.667 -32.667 -212 -49 -316 -49c-52 0 -101.667 4.33301 -149 13c-40 7.33301 -63.333 26.333 -70 57c-3.33301 15.333 -5 32 -5 50c0 24.667 5 61.667 15 111
c0.666992 2 1.5 3.83301 2.5 5.5s2.16699 2.5 3.5 2.5c6 0 9.66699 -2 11 -6c0 -16.667 0.333008 -33 1 -49c1.33301 -20 9.66602 -33 24.999 -39c53.333 -21.333 138.666 -31.333 255.999 -30s214 15.333 290 42c36 12.667 64.333 39 85 79
c1.33301 2.66699 4 4.33398 8 5.00098c4 0 6 -2 6 -6z" />
    <glyph glyph-name="backslash.001" unicode="&#x67e;" horiz-adv-x="713" 
d="M334 -139h-2.99805l-23 -31c-10 -12 -20 -20.333 -30 -25c-12.667 1.33301 -26.334 7.33301 -41.001 18l-36 30c-3.33301 5.33301 -3.33301 9.66602 0 12.999c5.33301 8 23.333 30.667 54 68c5.33301 1.33301 11.333 -1 18 -7s11 -9.33301 13 -10
c7.33301 -5.33301 18.666 -12 33.999 -20c6 -8.66699 13.667 -13 23 -13c11.333 18 26.333 37.333 45 58c16.667 -12 42.667 -28.667 78 -50c2 -5.33301 1.33301 -9.33301 -2 -12c-16 -25.333 -33.333 -49.666 -52 -72.999c-23.333 8.66699 -49.333 26.667 -78 54z
M329.002 -212l10 0.000976562c8.66699 -4 20.167 -11.667 34.5 -23s25.5 -19 33.5 -23c2.66699 -5.33301 3.66699 -8.66602 3 -9.99902c-12 -15.333 -30.667 -37 -56 -65c-6 -4 -10.667 -4.33301 -14 -1c-25.333 13.333 -47.333 29.666 -66 48.999
c4 8.66699 13 21.167 27 37.5s23.333 28.166 28 35.499zM708.002 235.001c-8.66699 -41.333 -28.166 -79.668 -58.499 -115.001s-65.166 -59 -104.499 -71c-106.667 -32.667 -212 -49 -316 -49c-52 -0 -101.667 4.33301 -149 13c-40 7.33301 -63.333 26.333 -70 57
c-3.33301 15.333 -5 32 -5 50c0 24.667 5 61.667 15 111c0.666992 2 1.5 3.83301 2.5 5.5s2.16699 2.5 3.5 2.5c6 0 9.66699 -2 11 -6c0 -16.667 0.333008 -33 1 -49c1.33301 -20 9.66602 -33 24.999 -39c53.333 -21.333 138.666 -31.333 255.999 -30s214 15.333 290 42
c36 12.667 64.333 39 85 79c1.33301 2.66699 4 4.33398 8 5.00098c4 0 6 -2 6 -6z" />
    <glyph glyph-name="a.001" unicode="&#x686;" horiz-adv-x="534" 
d="M220 352l2.99902 0.00195312c22 -18.667 47 -37 75 -55c10.667 13.333 27 32.666 49 57.999h5c14.667 -12.667 37.334 -30 68.001 -52c-1.33301 -6.66699 -5.33301 -14.334 -12 -23.001c-9.33301 -12 -14.666 -19.333 -15.999 -22
c-6.66699 -8.66699 -17.334 -21 -32.001 -37c-24 6 -49 23.333 -75 52c-10 -13.333 -27 -31.333 -51 -54c-12 1.33301 -24.5 7 -37.5 17s-25.167 20 -36.5 30l6 15c6.66699 10 24.667 33.667 54 71zM229.999 140.002l54 64.002c8.66699 -4 19.334 -11.333 32.001 -22l30 -25
c-1.33301 0 -2 -0.666992 -2 -2c-0.666992 0 2 -2 8 -6c-6 -6.66699 -13.667 -17.334 -23 -32.001c-0.666992 -0.666992 -2.66699 -2.33398 -6 -5.00098s-5 -5.66699 -5 -9c-0.666992 -0.666992 -7.33398 -8.33398 -20.001 -23.001c-14.667 4 -36 19.333 -64 46
c-4 6.66699 -5.33301 11.334 -4 14.001zM167.999 458.004l55.0039 59.999c0 2 -2.66699 4 -8 6c-72 4 -122.333 -1.66699 -151 -17c-6.66699 -3.33301 -13.334 -9.33301 -20.001 -18c-8 -12 -13 -19.333 -15 -22c-1.33301 -1.33301 -3 -1.66602 -5 -0.999023
s-3.66699 1.66699 -5 3c-1.33301 6 0 14 4 24c28 50.667 57.667 78.667 89 84c35.333 6 67.666 9 96.999 9c24 0 46 -2 66 -6l6 -3c7.33301 -5.33301 9 -12 5 -20c-12 -30 -24.333 -51.667 -37 -65l-104 -106c-42.667 -43.333 -71.667 -106.666 -87 -189.999
c-4 -91.333 20 -150.333 72 -177c27.333 -14 57.333 -21 90 -21c65.333 0 123.666 22.667 174.999 68s91 105.666 119 180.999c3.33301 6 7 7.66699 11 5c2.66699 -2 3 -7.66699 1 -17l-4 -18c-34.667 -118 -89.667 -209.333 -165 -274c-50 -43.333 -107 -65 -171 -65
c-34.667 0 -66.334 7.66699 -95.001 23c-57.333 38.667 -86 100.334 -86 185.001c0 33.333 4.66699 68 14 104c25.333 97.333 75 186.666 149 267.999z" />
    <glyph glyph-name="e.002" unicode="&#x688;" horiz-adv-x="268" 
d="M160 635l17.9971 25h7c-0.666992 2 -2 -5 -4 -21c0 -20.667 -0.333008 -41.334 -1 -62.001c-0.666992 -25.333 -4 -45.333 -10 -60c6 4.66699 15.667 11 29 19c16.667 8.66699 32 8.33398 46 -0.999023c12 -8 16 -20.667 12 -38c-14.667 -37.333 -37.667 -62 -69 -74
c-14.667 -1.33301 -48.667 -6 -102 -14c-4 -1.33301 -7.66699 0.666992 -11 6c1.33301 7.33301 7.33301 13.166 18 17.499s17.334 9.83301 20.001 16.5c12.667 19.333 19.334 29.666 20.001 30.999c6.66699 12.667 10.334 24.334 11.001 35.001c2 8.66699 3 19 3 31v20
c-0.666992 8.66699 -1 15 -1 19c0 20.667 4.66699 37.334 14 50.001zM216.997 493l-6 6.00293c-15.333 3.33301 -30 -2.33398 -44 -17.001c-5.33301 -5.33301 -15.666 -19 -30.999 -41c14 3.33301 28.5 7.16602 43.5 11.499s26.167 11.166 33.5 20.499
c5.33301 9.33301 6.66602 16 3.99902 20zM158.997 354.003l1.99805 4c3.33301 -0.666992 8.5 -3 15.5 -7s12.167 -7.33301 15.5 -10c36 -24.667 54 -60.334 54 -107.001c0 -27.333 -8.33301 -58 -25 -92c-12.667 -29.333 -27 -58 -43 -86
c-13.333 -19.333 -36.666 -32.666 -69.999 -39.999c-27.333 -6 -55 -10 -83 -12c-12 0 -18.333 0.5 -19 1.5s-1 2.16699 -1 3.5s0.666992 3 2 5l155 83c18.667 10 28.667 22.667 30 38c2 19.333 -2.66699 37.833 -14 55.5s-26.333 30.834 -45 39.501l-21 6
c14.667 41.333 30.334 80.666 47.001 117.999z" />
    <glyph glyph-name="h.001" unicode="&#x691;" horiz-adv-x="316" 
d="M237 660c-2 -10 -4 -34.3311 -6 -72.998c-2 -30.667 -6.33301 -54.667 -13 -72h3c23.333 24.667 45 35.334 65 32.001c9.33301 -2.66699 17 -10 23 -22c1.33301 -4.66699 2 -9 2 -13c0 -10 -4.16699 -20.667 -12.5 -32l-24.5 -32c-12 -16.667 -32 -26.334 -60 -29.001
c-44.667 -4 -68.334 -6.33301 -71.001 -7c-4 0 -8.33301 1.66699 -13 5c0.666992 1.33301 0.666992 3.33301 0 6c12.667 9.33301 32.334 31 59.001 65c6 15.333 9.33301 35 10 59v62c4 11.333 12.667 27.666 26 48.999c0.666992 3.33301 2.66699 5.66602 6 6.99902
c3.33301 0.666992 5.33301 -1 6 -5zM265 503.002l-3.00098 2.99902c-13.333 0.666992 -26.666 -4.66602 -39.999 -15.999l-31 -33c0 -6 0.333008 -8.33301 1 -7c28 2 40.333 3 37 3c13.333 4.66699 26.333 14.667 39 30c2.66699 6 1.66699 12.667 -3 20zM75.999 17.001
l-58.9941 -9.99902c-6 0 -9.66699 2 -11 6c-0.666992 6 3.66602 11.667 12.999 17l77 48c30 19.333 54.333 37.333 73 54c19.333 22 37.666 54.333 54.999 97l38 108c1.33301 5.33301 5.66602 8 12.999 8c6 0 9.33301 -2.66699 10 -8c-2.66699 -22 -8.33398 -51 -17.001 -87
c-20.667 -78.667 -45.334 -142.334 -74.001 -191.001c-10.667 -18 -28.334 -29 -53.001 -33c-22 -2.66699 -43.667 -5.66699 -65 -9z" />
    <glyph glyph-name="j.001" unicode="&#x698;" horiz-adv-x="368" 
d="M231 545l-5.99902 -5c-18 8 -41.333 28 -70 60l64 72l6 -2c20 -20 41.667 -39 65 -57c-8.66699 -19.333 -28.334 -42 -59.001 -68zM289.001 516l6.00098 -1.99805c29.333 -26.667 52 -45.334 68 -56.001c-2.66699 -8.66699 -10.334 -19.334 -23.001 -32.001
c-6.66699 -9.33301 -18 -23.333 -34 -42l-5 -5c-38 18 -63.333 39.667 -76 65c14 16.667 35.333 40.667 64 72zM149.002 520.002l6.00098 -1.99805c29.333 -26.667 52 -45.334 68 -56.001c-2.66699 -8.66699 -10.334 -19.334 -23.001 -32.001
c-6.66699 -9.33301 -18 -23.333 -34 -42l-5 -5c-38 18 -63.333 39.667 -76 65c14 16.667 35.333 40.667 64 72zM76.0029 17.0039l-58.9951 -9.99902c-6 0 -9.66699 2 -11 6c-0.666992 6 3.66602 11.667 12.999 17l77 48c30 19.333 54.333 37.333 73 54
c19.333 22 37.666 54.333 54.999 97l38 108c1.33301 5.33301 5.66602 8 12.999 8c6 0 9.33301 -2.66699 10 -8c0.666992 -12.667 -5 -41.667 -17 -87c-20.667 -78.667 -45.334 -142.334 -74.001 -191.001c-10.667 -18 -28.334 -29 -53.001 -33
c-22 -2.66699 -43.667 -5.66699 -65 -9z" />
    <glyph glyph-name="u.001" unicode="&#x6a9;" horiz-adv-x="763" 
d="M728 681l129.996 102.001c2 2 18.667 16.667 50 44c20 16.667 34.333 32.667 43 48c2 2.66699 4.33301 3.66699 7 3c3.33301 0 5 -1.66699 5 -5c-1.33301 -12.667 -12 -37 -32 -73c-10 -17.333 -35.333 -44 -76 -80l-175 -140c-12 -10 -20.333 -18 -25 -24
c-9.33301 -10.667 -15 -20.667 -17 -30c-2 -68 -4.33301 -136 -7 -204c-4 -79.333 -19.667 -143.833 -47 -193.5s-86.333 -87.167 -177 -112.5l-154 -16c-91.333 -1.33301 -157.666 5 -198.999 19c-32 10.667 -48.333 44.334 -49 101.001c0 8.66699 3.66699 42.667 11 102
c0.666992 4.66699 4 10 10 16c5.33301 1.33301 8.66602 -1.33398 9.99902 -8.00098l2 -46c0.666992 -18 7.33398 -31 20.001 -39c34.667 -14 79.334 -22 134.001 -24c47.333 -0.666992 94.666 -1 141.999 -1l93 6c36 3.33301 65.333 10.666 88 21.999
c44.667 16 70.667 39.667 78 71c4.66699 30.667 6.33398 70 5.00098 118c-2 65.333 -2.66699 105 -2 119c0.666992 16 5.33398 36 14.001 60c11.333 30 18 49.333 20 58c14.667 31.333 47.334 67 98.001 107z" />
    <glyph glyph-name="v.001" unicode="&#x6af;" horiz-adv-x="762" 
d="M892 940l0.000976562 2.99902c1.33301 0 3.66602 1.16699 6.99902 3.5s5.66602 3.5 6.99902 3.5c2 0 3.66699 -1.33301 5 -4v-3c1.33301 0 0.333008 -0.666992 -3 -2c2 -1.33301 2.33301 -3.66602 1 -6.99902c-2.66699 -4.66699 -4 -7.33398 -4 -8.00098
c-12 -27.333 -34.667 -54.666 -68 -81.999l-86 -69l-55 -48c-22 -19.333 -38.667 -36.333 -50 -51c-3.33301 -1.33301 -6 -0.333008 -8 3c6.66699 44 39.334 88.667 98.001 134l130 100c11.333 8.66699 20 17.667 26 27zM731.001 680.999l130.006 102l48 43
c18.667 16.667 32.334 32.334 41.001 47.001c1.33301 2.66699 3.66602 3.66699 6.99902 3c3.33301 -1.33301 5 -3.33301 5 -6c0 -9.33301 -2.66699 -18.833 -8 -28.5s-10.333 -19.167 -15 -28.5c-15.333 -32 -50.333 -69.667 -105 -113l-163 -129
c-16.667 -13.333 -27.667 -30 -33 -50c-2.66699 -26.667 -4 -65 -4 -115v-13c0 -106 -11.667 -183.667 -35 -233c-8.66699 -28 -24.834 -53.5 -48.501 -76.5s-49.834 -39.167 -78.501 -48.5l-65 -22l-153 -13c-16.667 -1.33301 -33.334 -2 -50.001 -2
c-52.667 0 -102.334 6.66699 -149.001 20c-24.667 7.33301 -39.667 24.666 -45 51.999c-3.33301 17.333 -5 35.666 -5 54.999c0 22.667 3.33301 55 10 97c2 4.66699 5 9.33398 9 14.001c4.66699 2 9 -1 13 -9c0 -16 -0.333008 -32 -1 -48c1.33301 -18 9.33301 -30 24 -36
c44.667 -18 104.667 -27 180 -27c14.667 0 45.667 0.666992 93 2c98.667 2.66699 168.667 16 210 40s59.666 56.667 54.999 98c-2 49.333 -2 119 0 209c1.33301 14 5.66602 30.333 12.999 49c10 25.333 16 41.333 18 48c9.33301 33.333 43.333 73 102 119z" />
    <glyph glyph-name="y.002" unicode="&#x6ba;" horiz-adv-x="518" 
d="M81 364l3.00195 -2.99512c-8 -30 -18.667 -75.667 -32 -137c-4 -22.667 -6 -44 -6 -64c0 -68.667 22.667 -115.334 68 -140.001c28 -15.333 59 -23 93 -23c52 0 102.333 15.667 151 47c51.333 32.667 84.666 73 99.999 121c2.66699 17.333 4 37.666 4 60.999
c0 8 -1 36.333 -3 85c-1.33301 34.667 -1 62.667 1 84c9.33301 36 22 72.667 38 110c4.66699 4.66699 9 5 13 1c1.33301 -12 0.666016 -44.333 -2.00098 -97l-2 -118c-2 -46.667 -7.33301 -84.334 -16 -113.001c-24 -76.667 -60.333 -143.334 -109 -200.001
c-40 -38 -84 -65.333 -132 -82c-27.333 -9.33301 -55.333 -14 -84 -14c-32 0 -59.667 6 -83 18c-52 34 -78 96 -78 186c0 50.667 8.33301 107 25 169c0 4.66699 1.5 10.667 4.5 18s4.5 12.666 4.5 15.999c5.33301 16.667 15.333 40.667 30 72
c4.66699 6.66699 8.66699 7.66699 12 3z" />
    <glyph glyph-name="uni06BB" unicode="&#x6bb;" horiz-adv-x="518" 
d="M81 364l3.00195 -2.99512c-8 -30 -18.667 -75.667 -32 -137c-4 -22.667 -6 -44 -6 -64c0 -68.667 22.667 -115.334 68 -140.001c28 -15.333 59 -23 93 -23c52 0 102.333 15.667 151 47c51.333 32.667 84.666 73 99.999 121c2.66699 17.333 4 37.666 4 60.999
c0 8 -1 36.333 -3 85c-1.33301 34.667 -1 62.667 1 84c9.33301 36 22 72.667 38 110c4.66699 4.66699 9 5 13 1c1.33301 -12 0.666016 -44.333 -2.00098 -97l-2 -118c-2 -46.667 -7.33301 -84.334 -16 -113.001c-24 -76.667 -60.333 -143.334 -109 -200.001
c-40 -38 -84 -65.333 -132 -82c-27.333 -9.33301 -55.333 -14 -84 -14c-32 0 -59.667 6 -83 18c-52 34 -78 96 -78 186c0 50.667 8.33301 107 25 169c0 4.66699 1.5 10.667 4.5 18s4.5 12.666 4.5 15.999c5.33301 16.667 15.333 40.667 30 72
c4.66699 6.66699 8.66699 7.66699 12 3zM179.002 257.005l71 79l5 -3c20 -23.333 44.333 -46.333 73 -69c-14.667 -16.667 -38 -40.667 -70 -72c-12 2 -24.167 8.5 -36.5 19.5s-23.833 21.833 -34.5 32.5zM245.002 615.005l26.999 37.998l6 -1
c0.666992 -4.66699 0.333984 -10.334 -0.999023 -17.001c-1.33301 -9.33301 -2 -15 -2 -17l-2 -54c-2 -21.333 -5.66699 -39 -11 -53c4 0.666992 9 3.5 15 8.5s10.333 7.83301 13 8.5c22 7.33301 38.5 6.5 49.5 -2.5s14.167 -22.5 9.5 -40.5
c-24 -42.667 -49.333 -66.667 -76 -72c-22 -1.33301 -53.667 -5 -95 -11c-6.66699 0 -11.334 1.33301 -14.001 4c0.666992 10.667 9.33398 18.334 26.001 23.001c30.667 37.333 46 68 46 92c2 8.66699 3 24.334 3 47.001c-0.666992 20.667 1.33301 36.334 6 47.001z
M229.001 438.003l0.00195312 -3.00098c21.333 4 34.666 6.66699 39.999 8c14.667 4.66699 26 11.334 34 20.001c5.33301 7.33301 7.66602 14.333 6.99902 21l-6 6c-4 1.33301 -8 2 -12 2c-12 0 -23.167 -6.16699 -33.5 -18.5z" />
    <glyph glyph-name="bar.001" unicode="&#x6be;" horiz-adv-x="451" 
d="M289 279c11.333 -13.333 15 -31.667 11 -55c31.333 28 59.666 42 84.999 42c11.333 0 22.333 -2.66699 33 -8c16.667 -11.333 25.334 -25.333 26.001 -42c1.33301 -32.667 -18.334 -74 -59.001 -124c-17.333 -15.333 -30.666 -26.333 -39.999 -33
c-16 -12 -31 -20.667 -45 -26c-57.333 -22 -115 -33 -173 -33c-39.333 -0 -75.333 5.33301 -108 16c-4 2 -8.66699 5.66699 -14 11c0 4.66699 3.5 8 10.5 10s10.833 3.33301 11.5 4c22 24 44.667 61 68 111c26 54.667 47.333 92.667 64 114c20.667 26.667 46 40 76 40
c24.667 0 42.667 -9 54 -27zM246 224.999l-9.99805 7.00098c-4.66699 3.33301 -8 5.33301 -10 6c-16.667 1.33301 -29.334 -2 -38.001 -10c-20.667 -18 -40.334 -46.333 -59.001 -85c-22.667 -45.333 -39.667 -75.333 -51 -90c25.333 6 46 13.333 62 22
c60 33.333 98.333 71.666 115 114.999c0 15.333 -3 27 -9 35zM385.002 182c-2.66699 8 -8.66992 14 -18.0029 18c-5.33301 1.33301 -10.666 2 -15.999 2c-18 0 -33.333 -6.66699 -46 -20c-2.66699 -2.66699 -20.667 -24.667 -54 -66
c-21.333 -27.333 -41.666 -46.666 -60.999 -57.999c68.667 5.33301 117.334 18.666 146.001 39.999c34 25.333 51 48.666 51 69.999c0 4.66699 -0.666992 9.33398 -2 14.001z" />
    <glyph glyph-name="braceleft.001" unicode="&#x6c1;" horiz-adv-x="189" 
d="M175 264c6 -16 9.00098 -33.334 9.00098 -52.001c0 -28.667 -7.33301 -62 -22 -100c-28.667 -74.667 -65.667 -111.334 -111 -110.001c-20.667 3.33301 -35.334 16.333 -44.001 39c-1.33301 8.66699 -2 17.667 -2 27c0 22 11 66 33 132
c-4 0.666992 -9.66699 3.33398 -17 8.00098c4.66699 20.667 9 38.334 13 53.001c2 14.667 6 35.334 12 62.001c5.33301 3.33301 20.333 3.66602 45 0.999023c38.667 -4 66.667 -24 84 -60zM124.001 168.999c-12.667 17.333 -31.3311 26.667 -55.998 28
c-20.667 -41.333 -29.334 -78.333 -26.001 -111c4 -12.667 10.667 -20.667 20 -24c3.33301 -0.666992 6.66602 -1 9.99902 -1c13.333 0 32 12 56 36c4.66699 9.33301 7 19.333 7 30c0 15.333 -3.66699 29.333 -11 42z" />
    <glyph glyph-name="uni06C3" unicode="&#x6c3;" horiz-adv-x="301" 
d="M230 264c6.66699 -16 10 -33.334 10 -52.001c0 -28 -7.33301 -61.333 -22 -100c-28 -74.667 -65 -111.334 -111 -110.001c-20.667 3.33301 -35.667 16.333 -45 39c-0.666992 8.66699 -1 17.667 -1 27c0 22 11 66 33 132c-4 0.666992 -9.66699 3.33398 -17 8.00098
c4 20.667 8.33301 38.334 13 53.001c2 14.667 6 35.334 12 62.001c5.33301 3.33301 20 3.66602 44 0.999023c39.333 -4 67.333 -24 84 -60zM180 168.999c-12.667 17.333 -31.332 26.667 -55.999 28c-20.667 -41.333 -29.334 -78.333 -26.001 -111
c4 -12.667 10.667 -20.667 20 -24c3.33301 -0.666992 6.66602 -1 9.99902 -1c12.667 0 31.334 12 56.001 36c4.66699 9.33301 7 19.333 7 30c0 15.333 -3.66699 29.333 -11 42zM158.002 476l3.00195 -0.000976562c11.333 14.667 28.333 34.667 51 60
c8 -4 18.833 -11.333 32.5 -22s23.5 -17.667 29.5 -21s13.333 -9.66602 22 -18.999c-6 -12.667 -24.667 -37.667 -56 -75c-4.66699 -8.66699 -11.334 -11 -20.001 -7c-28.667 12.667 -53.334 32 -74.001 58h-3c-10 -14.667 -27.333 -35 -52 -61c-6 0 -17.667 4.66699 -35 14
c-12.667 9.33301 -29.667 24.333 -51 45l1 6c13.333 18.667 35 45.667 65 81l5 -2c18 -13.333 45.333 -32.333 82 -57z" />
    <glyph glyph-name="asciitilde.001" unicode="&#x6cc;" horiz-adv-x="511" 
d="M502 664l4 -7.99805c-6 -22.667 -16 -56.334 -30 -101.001c-2.66699 -4.66699 -7.33398 -7.33398 -14.001 -8.00098c-10.667 -0.666992 -16.667 -1.33398 -18 -2.00098c-60.667 -30.667 -98.667 -74.667 -114 -132c-4.66699 -16 -0.333984 -29.667 12.999 -41
c5.33301 -3.33301 20.333 -8.66602 45 -15.999c18.667 -5.33301 31.667 -14.333 39 -27c9.33301 -16.667 14 -38.334 14 -65.001c0 -8.66699 -0.666992 -20 -2 -34c-1.33301 -17.333 -2 -28.333 -2 -33c-11.333 -63.333 -32.333 -120.333 -63 -171
c-34.667 -57.333 -78 -100 -130 -128c-23.333 -12 -49.333 -18 -78 -18c-34 0 -62 8.66699 -84 26c-50 40 -75.333 104.667 -76 194c-0.666992 72.667 20.666 177 63.999 313c6 2 9.83301 2.33301 11.5 1s2.5 -8 2.5 -20c-23.333 -94.667 -35 -162.667 -35 -204
c0 -86 21 -142.333 63 -169c20.667 -13.333 44 -20 70 -20c44.667 0 92.667 18.333 144 55c48 44 74.667 87.333 80 130c2.66699 20.667 -2.33301 34.667 -15 42c-17.333 4.66699 -34.666 9.66699 -51.999 15c-19.333 7.33301 -32 19 -38 35s-9 33.667 -9 53
c0 18.667 3.66699 43.334 11 74.001c26.667 112 78.334 195.333 155.001 250c18.667 8.66699 29.334 13 32.001 13c4 0 8 -1.33301 12 -4z" />
    <glyph glyph-name="braceright.001" unicode="&#x6d2;" horiz-adv-x="818" 
d="M323 -3l-153 -0.000976562l-90 12c-32.667 7.33301 -56.667 22 -72 44c-2 4.66699 -3 10 -3 16c0 11.333 5.66699 26.666 17 45.999c40.667 70 90 117.667 148 143l48 25c18 11.333 30.667 24.666 38 39.999c10 15.333 21.667 36.333 35 63
c2 3.33301 4.66699 5.33301 8 6c3.33301 0 5.66602 -2 6.99902 -6c-10 -50.667 -30.667 -95 -62 -133c-10.667 -9.33301 -39.667 -24 -87 -44c-37.333 -15.333 -62 -35.666 -74 -60.999c-0.666992 -4.66699 0.833008 -8.5 4.5 -11.5l10.5 -8.5
c39.333 -18 100.333 -27 183 -27h275c112.667 0 196.334 2 251.001 6c1.33301 0 3.33301 -1.33301 6 -4c-1.33301 -3.33301 -12.333 -12.666 -33 -27.999c-36.667 -27.333 -85 -45.666 -145 -54.999c-18.667 -2.66699 -72 -7 -160 -13z" />
    </font>
</defs>
</svg>
