<?xml version="1.0" standalone="no"?>
<!DOCTYPE svg PUBLIC "-//W3C//DTD SVG 1.1//EN" "http://www.w3.org/Graphics/SVG/1.1/DTD/svg11.dtd" >
<svg xmlns="http://www.w3.org/2000/svg" xmlns:xlink="http://www.w3.org/1999/xlink" version="1.1">
<metadata>
Created by FontForge 20161116 at Tue Feb 14 18:10:44 2017
 By Jimmy Warting
Copyright (c) ITU Punjab Pakistan, 2016. All rights reserved.
</metadata>
<defs>
<font id="MehrNastaliqWeb" horiz-adv-x="1126" >
  <font-face 
    font-family="Mehr Nastaliq Web"
    font-weight="400"
    font-stretch="normal"
    units-per-em="2048"
    panose-1="2 0 5 3 0 0 0 2 0 4"
    ascent="1638"
    descent="-410"
    bbox="-620 -958 3926.44 2802.1"
    underline-thickness="100"
    underline-position="-1050"
    unicode-range="U+0020-FDFB"
  />
<missing-glyph horiz-adv-x="1024" 
 />
    <glyph glyph-name="uniFDFB" unicode="&#xfdfb;" horiz-adv-x="2393" arabic-form="isolated" 
d="M2280 1499q13 -6 13 -11v-10q0 -33 -65 -88l-177 -98q-51 -33 -66 -33q-6 9 -6 10v9q8 44 72 82q61 30 229 139zM1688 1417q14 0 17 -57v-9q0 -96 -82 -124h-7q-12 0 -29 16q-25 -27 -45 -27h-11q-36 0 -40 60q0 82 43 124q8 0 8 -10q0 -14 -11 -76q0 -19 22 -28
q32 0 40 74q0 16 20 34h3q6 0 9 -20q-2 -18 -2 -31v-12q0 -33 26 -33q22 6 22 27l-3 18q4 74 20 74zM1825 1384l6 -4q-6 -49 -6 -164v-2q0 -292 60 -292q0 -6 26 -6q82 239 170 239h2q32 0 103 -32q38 12 59 12l9 -12v-5q-9 -37 -157 -242q-105 -140 -212 -140q-17 0 -46 12
l-4 -6v-23q0 -431 -238 -701q-143 -150 -279 -150q-117 0 -213 122q-45 85 -45 159v21q0 198 147 464q-22 -10 -53 -10q-39 0 -78 36q0 5 -10 10q-19 -65 -79 -161q-84 -111 -137 -111h-17q-60 0 -127 111q7 33 17 33q18 -3 26 -3q37 26 58 111q12 366 24 366q19 54 65 198
l7 2q2 0 10 -10q0 -10 -4 -10q-4 -117 -4 -170v-124q0 -251 -107 -356l-3 -13l6 -4h22q83 0 162 76q32 52 32 148q-6 125 -6 212v59q0 81 62 235q9 49 20 49q4 0 9 -13q-7 -72 -7 -137v-95q0 -200 39 -239q27 -23 43 -23q84 242 170 242h4q27 0 98 -29h13q33 10 45 10
q14 -6 14 -10v-10q0 -16 -147 -229q-76 -95 -137 -131l-20 -6l3 -17q0 -16 -79 -243q-7 -47 -7 -82q0 -189 190 -238q29 -4 44 -4q213 0 353 275q46 122 46 229q-29 441 -29 531l-5 7q80 278 86 288h6zM651 1227q4 0 9 -11l-7 -58q10 -112 17 -288q0 -317 -197 -448
q-34 -17 -61 -17h-14q-21 0 -55 30q-17 3 -33 3q-88 0 -177 -109q-8 -6 -10 -6h-6q-5 0 -10 13q14 66 122 183q77 66 84 66q60 33 101 33h4q29 0 53 -33l16 -3h9q92 22 92 88q0 122 -13 308q33 115 56 226q15 23 20 23zM396 1174q2 -6 2 -10l-43 -131v-35q0 -28 20 -36h4
q13 0 39 26h4q4 0 13 -13q-18 -105 -76 -105q-59 0 -59 89q0 75 82 212q1 0 14 3zM1944 909h6q102 0 193 111q-40 46 -76 46h-12q-58 0 -111 -157zM1210 798h7q104 0 193 111v3q-24 32 -83 47q-59 0 -117 -161zM1439 611q0 -6 104 -108q-109 -117 -114 -117q-41 33 -105 100
q57 66 115 125zM2015 582q0 -7 104 -106q-11 -21 -114 -121q-103 97 -104 103q101 115 114 124zM635 1493q52 0 61 -68v-16q0 -119 -193 -226q-33 -10 -40 -10l-3 5q4 9 106 88l4 5q-41 23 -41 71q0 75 68 142q24 9 38 9zM562 1376v-4q0 -30 57 -40q30 0 40 48q-5 42 -40 42
h-6q-51 -7 -51 -46z" />
    <glyph glyph-name="SAW" unicode="&#xfdfa;" horiz-adv-x="3075" arabic-form="isolated" 
d="M2650 822q11 -5 22 3.5t49.5 58t102.5 110.5t106.5 59t59.5 -25t17 -49q0 -59 -20 -116.5t-60 -104t-100 -75t-140 -28.5q-86 0 -136 57q-108 -136 -167 -134t-107 55q-12 -12 -46 -63l94 -68q26 -24 26 -76q0 -55 -16 -109.5t-43.5 -104t-64 -92t-78.5 -73.5t-87 -48.5
t-88 -17.5q-42 0 -77 18.5t-59.5 50.5t-38 75t-13.5 93q0 60 53 201q49 110 88.5 161.5t51.5 42.5t-8 -51.5t-55 -103.5q-40 -70 -40 -154q0 -75 44 -118t117 -43q33 0 57.5 5.5t49 23t53.5 49t72 83.5q-12 16 -33.5 30.5t-41.5 28.5t-35 29t-15 32q0 56 50 158
q55 124 57 175t4 138q13 163 81 220q7 -32 2 -106.5t-5.5 -91.5t-1.5 -32.5t-1 -23.5q1 -69 49 -114t116.5 3.5t89.5 74.5t65 -13zM1057 1377q-32 -20 -81 -33q-56 -41 -118 -14q2 0 -21.5 -24.5t-55.5 -52t-83.5 -33.5t-95.5 36q-11 -20 -34 -86q101 -35 103 -93
q-21 -126 -121 -153.5t-166 -40.5t-135 -43.5t-97.5 -73t-45.5 -109.5t-23.5 -167t-6.5 -250q0 -54 -1.5 -110t-5.5 -116l-12 -203q-35 44 -35 215q0 42 -1 224.5t4 240.5t14 103t27 96.5t44 104.5t60.5 92.5t78 74.5t84 56t82.5 33q36 14 53 42q56 67 70 302q0 29 5 78.5
t13.5 102.5t18.5 101q10 45 17 67t18.5 28.5t13.5 -8t1 -25t-1 -21.5q-3 -26 -8 -136.5t28 -145.5t63.5 -51.5t62.5 -16.5q12 0 38.5 6.5t62 36t59 14t42.5 -15.5q1 0 14 1t34.5 28.5t32.5 31.5q8 2 16 -12q3 -5 9 -7.5t15 1.5q27 27 39.5 49t28.5 47.5t28 23.5t1 -39
q-20 -82 -64 -119t-69 -37zM1163 520q38 -15 64 -10q36 7 52 13t64 45q10 19 49 29q30 -43 55 -43q35 0 53 21t28 66.5t16 116.5t17 172q22 145 88 189q6 -19 -16 -258q0 -68 5 -96t28 -50t49 -25q36 66 65.5 110t56.5 70t54 36.5t59 10.5q60 -21 67.5 -51.5t-1.5 -39.5
t-20 -15t-22 -6h-73q-104 0 -104 -60q0 -10 7.5 -20.5t18.5 -19.5t23.5 -14.5t21.5 -5.5q15 0 33 9t40 21t52.5 28t32 -4.5t-44.5 -60t-115 -87t-113.5 -56t-77 -6t-59.5 16.5t-34.5 28.5t-19.5 -5t-26.5 -38.5t-38.5 -40.5t-55.5 -39.5t-54.5 0.5t-42 20.5
q-90 -75 -120 -93.5t-69 -25.5q-23 -4 -41 -4q-38 0 -59 18q-42 4 -65.5 -4t-46.5 -21t-43 -27t-40 -26t-20 6.5t30.5 63t82 92t93 67t70.5 14.5t46 -12zM1777 1094q-18 11 10.5 31.5t66.5 43.5q58 35 109.5 71t89.5 66q14 12 27 22q43 44 59 21q3 -4 28.5 -28t71.5 -24
q23 0 40.5 3.5t31.5 12t26.5 23.5t24.5 38q13 25 29 26q0 -2 6.5 -9.5t13.5 -11.5t20 -9.5t43 -1.5q55 0 55 41v103q0 34 -1 31.5t3 11.5q4 11 41 85q5 10 10 11t8 -9q21 -66 21 -135q0 -43 -17.5 -91t-46 -88.5t-84 -79t-120.5 -14.5q-6 0 -36 -20.5t-69 -36.5t-89 -12
t-95 56q-99 -52 -127 -67q-90 -50 -150 -60zM1809 2018q-51 -77 -99 -130q-64 -73 -130.5 -118t-133.5 -59t-129 -14q-53 0 -153 47q-5 0 -32.5 -5.5t-61 -27t-67 -42t-27.5 2t39.5 66.5t72.5 78t79.5 54.5t76.5 20.5q11 0 32.5 -6t45.5 -13t47 -13t38 -6q45 0 85 7.5
t79.5 25t82 47t92.5 73.5q21 18 38 31q28 27 35 17.5t-10 -36.5zM696 497q-34 3 -59.5 -7.5t-53.5 -31t-52.5 -38t-6 34.5t64 103.5t99.5 78.5t87.5 20t39 -14.5t39 -5.5t60 12t38 30t16 55t4.5 91v109q0 266 90 344q-4 -201 -2.5 -275t-3.5 -141.5t-16 -119.5t-61.5 -120.5
t-95.5 -95.5q-94 -72 -187 -29zM1470 1168q43 27 110 70q135 75 141 92.5t-6 28.5q-120 -10 -128 96q0 30 14.5 58t36.5 57.5t36 43t41 13.5q22 0 41 -15.5t33 -40.5t22 -55.5t8 -60.5q0 -84 -50 -162t-84 -103q-85 -32 -194 -54q-26 -12 -38 -0.5t17 32.5zM1578 196
q0 -35 -98 -125q-7 4 -31 21.5t-67 49.5q-29 -32 -96 -99q-104 75 -104 93q91 120 104 120q30 0 115 -73q73 90 95 90q14 0 28.5 -8t26.5 -20t19.5 -25.5t7.5 -23.5zM1327 1070q0 -24 -1.5 -59.5t-5.5 -76.5t-11.5 -83t-20 -78t-30.5 -62.5t-43 -36.5v11q17 77 33 365
q11 189 79 238v-218zM2161 1560q4 32 10 61q1 1 1 2q7 30 21.5 42t20.5 -4t4 -43q-1 -3 -1 -6q1 -22 29 -25q8 -1 15 0q18 5 24 29q7 33 12 42.5t14 14.5q8 3 21 -54q6 -20 32 -14q12 3 28 11q0 47 4 60l15 33q19 -19 19 -74q0 -30 -14 -53q-7 -11 -18 -21q-19 -18 -50 -29
q-25 -9 -54 9q-28 -23 -56.5 -29t-55 2.5t-21.5 45.5zM595 -52l3 248q0 101 55 173q14 -18 15.5 -44.5t3.5 -163.5t-77 -213zM2295 1904.5q-2 87.5 23 129.5t25 -14q0 -8 2 -27.5t-1 -125.5q0 -36 -24 -91q-10 -23 -21.5 -25.5t-9.5 23.5q8 43 6 130.5zM2947 879
q-2 60 -59 69t-159 -130q90 -7 218 61zM262 406q85 55 116 82.5t19 38.5q-126 8 -128 96q0 30 14 62.5t27.5 55.5t36.5 38.5t50 15.5q22 0 41 -15.5t33 -40.5t22 -55.5t8 -60.5q0 -99 -121 -240q-38 -36 -91 -41q-41 -15 -125 -36q-10 -4 -21.5 -1t5.5 28q43 28 114 73z
M2786 1525q0 -24 -1.5 -59.5t-5.5 -76.5t-11.5 -83t-20 -78t-30.5 -62.5t-43 -36.5v11q17 77 33 365q11 189 79 238v-218zM481 1843q4 32 10 61q1 1 1 2q7 30 21.5 42t20.5 -4t4 -43q-1 -3 -1 -6q1 -22 29 -25q8 -1 15 0q18 5 24 29q7 33 12 42.5t14 14.5q8 3 21 -54
q6 -20 32 -14q12 3 28 11q0 47 4 60l15 33q19 -19 19 -74q0 -30 -14 -53q-7 -11 -18 -21q-19 -18 -50 -29q-25 -9 -54 9q-28 -23 -56.5 -29t-55 2.5t-21.5 45.5z" />
    <glyph glyph-name=".notdef" horiz-adv-x="1024" 
 />
    <glyph glyph-name=".null" horiz-adv-x="0" 
 />
    <glyph glyph-name="nonmarkingreturn" horiz-adv-x="1024" 
 />
    <glyph glyph-name="space" unicode=" " horiz-adv-x="70" 
 />
    <glyph glyph-name="space" unicode="&#xa0;" horiz-adv-x="70" 
 />
    <glyph glyph-name="glyph4" 
 />
    <glyph glyph-name="quotedbl" 
 />
    <glyph glyph-name="numbersign" 
 />
    <glyph glyph-name="dollar" 
 />
    <glyph glyph-name="percent" 
 />
    <glyph glyph-name="ampersand" 
 />
    <glyph glyph-name="quotesingle" 
 />
    <glyph glyph-name="parenleft" 
 />
    <glyph glyph-name="parenright" 
 />
    <glyph glyph-name="asterisk" 
 />
    <glyph glyph-name="plus" 
 />
    <glyph glyph-name="comma" 
 />
    <glyph glyph-name="hyphen" 
 />
    <glyph glyph-name="period" 
 />
    <glyph glyph-name="slash" 
 />
    <glyph glyph-name="zero" 
 />
    <glyph glyph-name="one" 
 />
    <glyph glyph-name="two" 
 />
    <glyph glyph-name="three" 
 />
    <glyph glyph-name="four" 
 />
    <glyph glyph-name="five" 
 />
    <glyph glyph-name="six" 
 />
    <glyph glyph-name="seven" 
 />
    <glyph glyph-name="glyph27" 
 />
    <glyph glyph-name="nine" 
 />
    <glyph glyph-name="colon" 
 />
    <glyph glyph-name="semicolon" 
 />
    <glyph glyph-name="less" 
 />
    <glyph glyph-name="equal" 
 />
    <glyph glyph-name="greater" 
 />
    <glyph glyph-name="question" 
 />
    <glyph glyph-name="at" 
 />
    <glyph glyph-name="A" 
 />
    <glyph glyph-name="B" 
 />
    <glyph glyph-name="C" 
 />
    <glyph glyph-name="D" 
 />
    <glyph glyph-name="E" 
 />
    <glyph glyph-name="F" 
 />
    <glyph glyph-name="G" 
 />
    <glyph glyph-name="H" 
 />
    <glyph glyph-name="I" 
 />
    <glyph glyph-name="J" 
 />
    <glyph glyph-name="K" 
 />
    <glyph glyph-name="L" 
 />
    <glyph glyph-name="M" 
 />
    <glyph glyph-name="N" 
 />
    <glyph glyph-name="O" 
 />
    <glyph glyph-name="P" 
 />
    <glyph glyph-name="Q" 
 />
    <glyph glyph-name="R" 
 />
    <glyph glyph-name="S" 
 />
    <glyph glyph-name="T" 
 />
    <glyph glyph-name="U" 
 />
    <glyph glyph-name="V" 
 />
    <glyph glyph-name="W" 
 />
    <glyph glyph-name="X" 
 />
    <glyph glyph-name="Y" 
 />
    <glyph glyph-name="Z" 
 />
    <glyph glyph-name="bracketleft" 
 />
    <glyph glyph-name="backslash" 
 />
    <glyph glyph-name="bracketright" 
 />
    <glyph glyph-name="asciicircum" 
 />
    <glyph glyph-name="underscore" 
 />
    <glyph glyph-name="grave" 
 />
    <glyph glyph-name="a" 
 />
    <glyph glyph-name="b" 
 />
    <glyph glyph-name="c" 
 />
    <glyph glyph-name="d" 
 />
    <glyph glyph-name="e" 
 />
    <glyph glyph-name="f" 
 />
    <glyph glyph-name="g" 
 />
    <glyph glyph-name="h" 
 />
    <glyph glyph-name="i" 
 />
    <glyph glyph-name="j" 
 />
    <glyph glyph-name="k" 
 />
    <glyph glyph-name="l" 
 />
    <glyph glyph-name="m" 
 />
    <glyph glyph-name="n" 
 />
    <glyph glyph-name="o" 
 />
    <glyph glyph-name="p" 
 />
    <glyph glyph-name="q" 
 />
    <glyph glyph-name="r" 
 />
    <glyph glyph-name="s" 
 />
    <glyph glyph-name="t" 
 />
    <glyph glyph-name="u" 
 />
    <glyph glyph-name="v" 
 />
    <glyph glyph-name="w" 
 />
    <glyph glyph-name="x" 
 />
    <glyph glyph-name="y" 
 />
    <glyph glyph-name="z" 
 />
    <glyph glyph-name="braceleft" 
 />
    <glyph glyph-name="bar" 
 />
    <glyph glyph-name="braceright" 
 />
    <glyph glyph-name="asciitilde" 
 />
    <glyph glyph-name="quotedblleft" unicode="&#x201c;" horiz-adv-x="658" 
d="M249.5 2088.5q9.5 -9.5 -9 -42.5t-31.5 -55q-16 -29 -24 -51.5t0.5 -37t35 -6.5t49 -16.5t21 -78t-29 -91.5t-59.5 -41t-55.5 15t-36.5 60q-8 26 -9 64q-1 66 25 134.5t86 130.5q28 25 37.5 15.5zM515.5 2095.5q9.5 -9.5 -9 -42.5t-31.5 -55q-16 -29 -24 -51.5t0.5 -37
t35 -6.5t49 -16.5t21 -78t-29 -91.5t-59.5 -41t-55.5 15t-36.5 60q-8 26 -9 64q-1 66 25 134.5t86 130.5q28 25 37.5 15.5z" />
    <glyph glyph-name="quotedblright" unicode="&#x201d;" horiz-adv-x="658" 
d="M143 1706q-9 9 9.5 42.5t31.5 55.5q15 28 23 50.5t-0.5 37t-34.5 6.5t-49 17t-21 78.5t29.5 91.5t59 40.5t55.5 -15t36 -59.5q8 -27 9 -65q1 -66 -24.5 -134.5t-85.5 -130.5q-29 -24 -38 -15zM409 1713q-9 9 9.5 42.5t31.5 55.5q15 28 23 50.5t-0.5 37t-34.5 6.5t-49 17
t-21 78.5t29.5 91.5t59 40.5t55.5 -15t36 -59.5q8 -27 9 -65q1 -66 -24.5 -134.5t-85.5 -130.5q-29 -24 -38 -15z" />
    <glyph glyph-name="arabicquestion" unicode="&#x61f;" horiz-adv-x="802" 
d="M602 1104q0 -43 -29.5 -83.5t-56.5 -40.5q-24 0 -30 42.5t-40 42.5q-49 0 -103 -54q-50 -53 -50 -90q0 -30 95 -32q111 -3 131 -21q63 -61 63 -144q0 -23 -5 -50q-17 -86 -71 -162q-7 -11 -25 -11q-19 0 -19 17t11 55.5t11 59.5q0 31 -11 52q-20 39 -93 43q-112 5 -121 9
q-59 18 -59 91q0 97 76 226q91 158 222 158q104 0 104 -108zM536 290q0 -15 -33 -75q-32 -63 -49 -63q-18 0 -52 47q-33 45 -33 59t38.5 80.5t46.5 66.5q11 0 46.5 -51t35.5 -64z" />
    <glyph glyph-name="HAMZA" unicode="&#x621;" horiz-adv-x="681" 
d="M228.5 280q1.5 5 -5.5 8q-16 8 -33 24q-25 22 -31 61q0 29 70 124q113 149 165 149q15 0 32 -6t31.5 -16.5t24.5 -24t10 -28.5q0 -41 -43 -41q-8 0 -20 5.5t-23.5 12.5t-39 4.5t-61.5 -32.5t-24 -44t26 -29.5t36.5 -28.5t41.5 -14q6 0 25 6.5t64 26.5t94 35q6 2 7 2
q6 0 6 -7q0 -25 -26 -49.5t-62.5 -43.5t-82 -47t-96 -65t-67.5 -53.5t-49.5 -39t-49 -28.5t-32.5 -3.5t18 42.5q29 34 83 86q10 9 11.5 14z" />
    <glyph glyph-name="alefwithmaddaabove" unicode="&#x622;" horiz-adv-x="764" 
d="M268 133q12 46 23 100t16.5 104t11 181t8.5 190t9.5 106.5t34.5 136t71 188.5q8 4 11 -5.5t2.5 -13t-6.5 -30t-12 -89.5v-246q0 -53 -10 -224q-1 -46 -16.5 -118.5t-42.5 -132.5q-68 -153 -100 -147zM916 1656q-10 -44 -54 -128t-109.5 -153.5t-125 -96.5t-114 -28
t-82 13t-41 21.5t-22.5 7.5q-15 0 -47 -10.5t-59.5 -27.5t-51.5 -35.5t-48 -47.5t-34.5 -25.5t-13.5 0.5q1 37 79 164q138 209 300 225h2q5 0 18 -2.5t25.5 -11.5t19.5 -20t57 -9t93.5 21.5t91 63t72 77.5t35.5 39t12 -7q2 -12 -3 -30z" />
    <glyph glyph-name="alefupperhamza" unicode="&#x623;" horiz-adv-x="405" 
 />
    <glyph glyph-name="wowhamza" unicode="&#x624;" horiz-adv-x="850" 
 />
    <glyph glyph-name="aleflowerhamza" unicode="&#x625;" horiz-adv-x="405" 
 />
    <glyph glyph-name="yehhamza" unicode="&#x626;" horiz-adv-x="1243" 
 />
    <glyph glyph-name="alef" unicode="&#x627;" horiz-adv-x="405" 
 />
    <glyph glyph-name="beh" unicode="&#x628;" horiz-adv-x="1398" 
 />
    <glyph glyph-name="tehheh" unicode="&#x629;" horiz-adv-x="548" 
 />
    <glyph glyph-name="tehheh" unicode="&#x6c3;" horiz-adv-x="548" 
 />
    <glyph glyph-name="teh" unicode="&#x62a;" horiz-adv-x="1398" 
 />
    <glyph glyph-name="seh" unicode="&#x62b;" horiz-adv-x="1398" 
 />
    <glyph glyph-name="jeem" unicode="&#x62c;" horiz-adv-x="1096" 
 />
    <glyph glyph-name="hheh" unicode="&#x62d;" horiz-adv-x="1096" 
 />
    <glyph glyph-name="kheh" unicode="&#x62e;" horiz-adv-x="1096" 
 />
    <glyph glyph-name="daal" unicode="&#x62f;" horiz-adv-x="668" 
 />
    <glyph glyph-name="zaal" unicode="&#x630;" horiz-adv-x="668" 
 />
    <glyph glyph-name="reh" unicode="&#x631;" horiz-adv-x="962" 
 />
    <glyph glyph-name="zeh" unicode="&#x632;" horiz-adv-x="962" 
 />
    <glyph glyph-name="arabicseen" unicode="&#x633;" horiz-adv-x="1608" 
 />
    <glyph glyph-name="sheen" unicode="&#x634;" horiz-adv-x="1608" 
 />
    <glyph glyph-name="arabicsod" unicode="&#x635;" horiz-adv-x="2147" 
 />
    <glyph glyph-name="zod" unicode="&#x636;" horiz-adv-x="2147" 
 />
    <glyph glyph-name="arabictaw" unicode="&#x637;" horiz-adv-x="1135" 
 />
    <glyph glyph-name="zaw" unicode="&#x638;" horiz-adv-x="1135" 
 />
    <glyph glyph-name="arabicann" unicode="&#x639;" horiz-adv-x="1057" 
 />
    <glyph glyph-name="ghann" unicode="&#x63a;" horiz-adv-x="1057" 
 />
    <glyph glyph-name="fay" unicode="&#x641;" horiz-adv-x="1543" 
 />
    <glyph glyph-name="qaf" unicode="&#x642;" horiz-adv-x="1142" 
 />
    <glyph glyph-name="laam" unicode="&#x644;" horiz-adv-x="996" 
 />
    <glyph glyph-name="meem" unicode="&#x645;" horiz-adv-x="666" 
 />
    <glyph glyph-name="noon" unicode="&#x646;" horiz-adv-x="1034" 
 />
    <glyph glyph-name="heh" unicode="&#x647;" horiz-adv-x="550" 
 />
    <glyph glyph-name="arabicwow" unicode="&#x648;" horiz-adv-x="850" 
 />
    <glyph glyph-name="arabicyeh" unicode="&#x64a;" horiz-adv-x="1245" 
 />
    <glyph glyph-name="tteh" unicode="&#x679;" horiz-adv-x="1398" 
 />
    <glyph glyph-name="peh" unicode="&#x67e;" horiz-adv-x="1398" 
 />
    <glyph glyph-name="cheh" unicode="&#x686;" horiz-adv-x="1096" 
 />
    <glyph glyph-name="ddaal" unicode="&#x688;" horiz-adv-x="666" 
 />
    <glyph glyph-name="rreh" unicode="&#x691;" horiz-adv-x="962" 
 />
    <glyph glyph-name="zzeh" unicode="&#x698;" horiz-adv-x="962" 
 />
    <glyph glyph-name="kaf" unicode="&#x643;" horiz-adv-x="1588" 
 />
    <glyph glyph-name="kaf" unicode="&#x6a9;" horiz-adv-x="1588" 
 />
    <glyph glyph-name="gaf" unicode="&#x6af;" horiz-adv-x="1588" 
 />
    <glyph glyph-name="noonghunna" unicode="&#x6ba;" horiz-adv-x="1034" 
 />
    <glyph glyph-name="hehdochashmee" unicode="&#x6be;" horiz-adv-x="875" 
 />
    <glyph glyph-name="hehgoal" unicode="&#x6c1;" horiz-adv-x="550" 
 />
    <glyph glyph-name="yeh" unicode="&#x649;" horiz-adv-x="1245" 
 />
    <glyph glyph-name="yeh" unicode="&#x6cc;" horiz-adv-x="1245" 
 />
    <glyph glyph-name="yehbarree" unicode="&#x6d2;" horiz-adv-x="469" 
 />
    <glyph glyph-name="arabicpercent" unicode="&#x66a;" horiz-adv-x="1617" 
d="M1305 1837l-939 -1709h-112l947 1709h104zM508 1239q-58 -76 -153 -76q-35 0 -67.5 15t-57 41t-39 62.5t-14.5 78.5q0 38 12 71.5t34.5 59t53.5 40t70 14.5h8q42 -2 75.5 -18.5t57.5 -44t37 -64t13 -77.5q0 -65 -30 -102zM1311 393q-49 -79 -148 -79q-30 0 -61.5 9
t-57.5 28.5t-43 50t-17 73.5q0 39 12.5 75.5t34.5 65t53 45.5t69 17q41 0 75 -14.5t58.5 -39.5t38 -59t13.5 -73q0 -56 -27 -99z" />
    <glyph glyph-name="urdu0" unicode="&#x6f0;" horiz-adv-x="724" 
d="M367 883q19 -20 35 -31.5t33.5 -24.5t32.5 -24t22.5 -17t8 -32.5t-59.5 -107t-100 -79.5q-24 15 -51 33t-49.5 35t-37.5 30t-15 16q-1 4 -0.5 17.5t44 73t63 80.5t33.5 35q12 11 23 10q6 -2 18 -14z" />
    <glyph glyph-name="urdu1" unicode="&#x6f1;" horiz-adv-x="719" 
d="M373 850q0 -192 -72 -362q-9 -18 -17.5 -35.5t-14 -27t-8.5 -8t3 24.5q1 14 2.5 37.5t3 46t3.5 40.5t2 21v513q6 56 30 118t45 117q15 36 20 30.5t3 -72.5v-443z" />
    <glyph glyph-name="urdu2" unicode="&#x6f2;" horiz-adv-x="719" 
d="M298 796q0 -123 -23.5 -244.5t-77.5 -232.5q-7 -9 -10.5 -7t-3.5 7q0 4 1.5 11t1.5 12q11 102 18.5 212t-0.5 211q0 21 -3.5 65.5t-7.5 93t-8.5 91t-4.5 61.5q0 15 6 50t15.5 69.5t19 59.5t17.5 21q5 -51 32.5 -81t69.5 -39q52 -14 103 0t76 48q8 13 19 29.5t20.5 26.5
t14 7.5t-0.5 -29.5q-8 -45 -24.5 -105t-49 -110.5t-82 -82t-123.5 -18.5q0 -32 2.5 -63t2.5 -63z" />
    <glyph glyph-name="urdu3" unicode="&#x6f3;" horiz-adv-x="719" 
d="M192 714q0 -58 -1.5 -105t-8 -90t-19.5 -85.5t-34 -90.5q-8 -18 -14.5 -30.5t-10.5 -14t-4 11.5q0 12 6 46q17 171 4 343t-36 343v19q0 10 6 43t14.5 68.5t20 63t22.5 27.5h2q11 -68 46 -97t102 -29q41 0 68.5 17t54.5 50q4 4 10 14.5t12.5 22t12.5 19t12 7.5q8 0 8.5 -6
t-1.5 -16t-4.5 -20t-1.5 -17q0 -15 10.5 -22.5t24 -11.5t28.5 -6t24 -2q20 0 44.5 9.5t41.5 22.5q9 7 17.5 19.5t15.5 25.5t12.5 23t9.5 10q8 0 9.5 -6.5t1.5 -11.5q0 -29 -16 -75t-41.5 -93.5t-56.5 -87t-60 -54.5q-23 -11 -49 -14.5t-48.5 2.5t-41 21.5t-27.5 42.5
q-18 -27 -34.5 -45.5t-35.5 -30t-43 -15.5t-57 -4q0 -47 2.5 -95.5t2.5 -95.5z" />
    <glyph glyph-name="urdu4" unicode="&#x6f4;" horiz-adv-x="719" 
d="M106 994q8 39 22 82t37 78t57.5 58.5t83.5 23.5q36 0 65 -14.5t50.5 -38t34.5 -55t16 -65.5q19 45 44.5 91.5t57 86.5t69 74t84.5 55q0 -37 -8 -83t-16 -83q-107 -84 -172 -184t-111 -227h-7q-2 0 -4.5 15t-6.5 36t-9 42t-10 33q-15 33 -45 56.5t-69 23.5q-12 0 -32 -4
t-38.5 -13t-32 -21t-12.5 -27q5 -78 15 -155t10 -156q0 -66 -7.5 -128t-25.5 -124q-6 -27 -12.5 -44t-10.5 -21t-6.5 6.5t0.5 38.5q0 100 -5.5 180t-11 147.5t-9 126t2.5 117.5q0 1 1.5 10l3.5 21t4 23.5t3 17.5z" />
    <glyph glyph-name="urdu5" unicode="&#x6f5;" horiz-adv-x="719" 
d="M133 626q0 -40 30 -65t67 -28q38 -3 67.5 22t49.5 55.5t42 83.5q5 0 7.5 -18.5t12 -40t30 -40.5t61.5 -19q17 0 43 3.5t38 20.5q1 31 -7.5 69t-24 76t-34.5 72t-35 58q-9 13 -28 40t-41.5 56.5t-44.5 51.5t-36 26q-21 -34 -55.5 -92t-65.5 -120t-53.5 -119.5t-22.5 -91.5
zM42 481q0 47 11 99.5t40 123.5t81 167.5t135 233.5q6 12 16 40t19.5 58t16 52.5t9.5 22.5q8 0 24 -12.5t24 -19.5q43 -44 88.5 -98t81.5 -114.5t59.5 -126t23.5 -132.5q0 -30 -6 -73t-17.5 -91.5t-31 -96t-44.5 -86.5t-56 -63.5t-71 -24.5q-49 0 -78.5 33.5t-39.5 81.5
q-12 -24 -26 -50.5t-33 -48.5t-43 -36.5t-57 -14.5q-35 0 -58.5 15.5t-39 41.5t-22 56.5t-6.5 62.5z" />
    <glyph glyph-name="urdu6" unicode="&#x6f6;" horiz-adv-x="719" 
d="M467 904q-54 -35 -110 -40.5t-101.5 15.5t-73.5 67t-25 114q0 9 1.5 27t5.5 40t8 44.5t9 40.5q7 15 11.5 20t8 4t5 -3t3 -32t49 -69t120.5 -39q67 0 104.5 35.5t59.5 87.5q20 55 27 46t2 -73q-1 -88 -3.5 -171t-3.5 -171q-4 -63 -5.5 -127.5t-7.5 -129t-17.5 -127.5
t-34.5 -123q-6 -16 -12 -28.5t-11 -15.5t-6.5 5.5t1.5 34.5q-1 71 1.5 142.5t4.5 142.5t0.5 142t-10.5 141z" />
    <glyph glyph-name="urdu7" unicode="&#x6f7;" horiz-adv-x="719" 
d="M217 725q94 -86 198.5 -126t215.5 -108q-3 -15 -20 -43t-37 -58t-52.5 -56t-42.5 -30q-14 1 -114 43t-160 83t-91 69.5t-40 42.5q0 23 6.5 45.5t17.5 42.5q83 148 200 313.5t248 283.5q16 12 19.5 10.5t-8.5 -19.5q-6 -11 -17 -37.5t-20.5 -42t-17.5 -28t-10 -13.5
q-101 -141 -275 -372z" />
    <glyph glyph-name="urdu8" unicode="&#x6f8;" horiz-adv-x="719" 
d="M308 881q-57 -125 -108 -253.5t-121 -249.5q-2 -6 -17 -30t-30 -44.5t-24 -24.5t1 30q70 176 142 345.5t143 344.5q19 37 33 72.5t30 68.5q5 3 8.5 3.5t15 -15.5t36 -56t70.5 -117q55 -112 109.5 -230t99.5 -234q-16 -29 -29.5 -51.5t-28 -43.5l-29 -42t-33.5 -47
q-36 71 -67.5 144t-62 145.5t-64 144t-74.5 140.5z" />
    <glyph glyph-name="urdu9" unicode="&#x6f9;" horiz-adv-x="719" 
d="M195 982q0 -27 15.5 -46.5t38 -31.5t48.5 -18t48 -6q12 0 27.5 1.5t28 7t22.5 13t11 22.5q0 30 -10.5 59.5t-29 54.5t-45 41t-57.5 16q-21 0 -38.5 -10.5t-30.5 -26.5t-20.5 -36t-7.5 -40zM240 1228q39 54 75.5 73.5t69 13t59.5 -34t46.5 -67.5t30 -88t10.5 -94
q0 -137 -11.5 -276t-45.5 -269q-40 -122 -60 -162t-9 23q8 64 13 129.5t5 143.5q0 6 -0.5 24.5t-1.5 37.5t-2 37t-1 24q-34 -51 -86.5 -69.5t-101.5 -6.5t-84.5 53t-37.5 108v1q6 48 18.5 100.5t30 104t39.5 101.5t44 93z" />
    <glyph glyph-name="thinspace" horiz-adv-x="469" 
 />
    <glyph glyph-name="arabicfullstop" unicode="&#x6d4;" horiz-adv-x="951" 
d="M751 341q-2 -12 -9.5 -35.5t-24 -50t-43 -53.5t-65.5 -47q-8 -3 -76 -3h70q-30 0 -51.5 1.5t-37 4t-31.5 7.5t-37 12.5t-53 18.5q-125 44 -190 82l-3 47q73 0 132 0.5t186.5 19t210.5 29.5q22 0 22 -33z" />
    <glyph glyph-name="uni0614" unicode="&#x614;" horiz-adv-x="-13916" 
d="M232 1810q23 12 50 30.5t49 35.5q39 36 76 76.5t88 36.5q27 0 37.5 -14t26.5 -21q22 5 34.5 34t25.5 44q5 5 7 5q7 0 6 -16q-8 -31 -22 -62.5t-29.5 -55t-31.5 -38.5t-29 -11q-11 0 -15.5 3.5t-10 7t-15 5.5t-29.5 3q-36 -5 -63 -23t-58 -42q-71 -67 -153 -90.5
t-184 -27.5q-44 2 -91 9t-87 27q-21 5 -19 16t17 11q104 6 212.5 9.5t207.5 47.5z" />
    <glyph glyph-name="uni060F" unicode="&#x60f;" horiz-adv-x="1799" 
d="M453 47q46 -37 98 -57q57 -23 126.5 -24t132 15t119.5 45t120.5 75t117 103.5t96.5 121.5t46 105t-63 100t-153 57t-156.5 -26.5t-126.5 -76t-118.5 -127.5t-89 -111.5t-149.5 -199.5zM309 -180q-51 -67 -81.5 -100t-52.5 -50t-38.5 -28.5t-34.5 -11.5q23 55 76.5 129.5
t96.5 140.5q-1 8 -6 33q-16 65 -16 154q0 284 185 615q56 96 80 118q-106 45 -115 150q0 9 79 107q61 76 110.5 159.5t103.5 126.5t115 41.5t96 -39t34.5 -65.5t-25 -50.5t-64.5 -9t-100.5 17t-100.5 -43t-14.5 -90t65.5 -56t66 -10t67.5 21t104.5 60.5q107 76 140.5 82.5
t18 -22t-38.5 -52t-57 -52t-204 -156.5q-91 -69 -163 -136t-138 -154q-131 -162 -131 -370q0 -69 21 -126q7 -19 18 -43q136 194 204.5 281t153.5 178t199.5 164.5t230.5 73.5q52 0 97.5 -22.5t72 -57t36.5 -84.5t2 -117.5t-18.5 -108.5t-37.5 -111q-38 -99 -88.5 -181.5
t-123.5 -167.5t-169.5 -153t-155.5 -91t-123.5 -36t-123 -7t-108 26.5t-83.5 49.5q-33 26 -62 73z" />
    <glyph glyph-name="uni060E" unicode="&#x602;" horiz-adv-x="2071" 
d="M215 460q0 -45 27.5 -72.5t66 -44t83 -23.5t74.5 -10q0 35 -10 78t-29.5 80.5t-49.5 63.5t-67 26q-40 0 -67.5 -30.5t-27.5 -67.5zM124 371q-2 8 -2 17q0 51 24 114q28 72 75.5 127t108.5 76q19 6 39 6q43 0 89 -32q57 -45 76.5 -122t19.5 -156q0 -30 -1 -54t-3 -46
q123 -16 276 -16h18q163 1 406 6.5t408 24t300 37.5h10q16 0 16 -8q0 -3 -1 -5q-7 -17 -27 -24q-51 -39 -139 -71.5t-198.5 -57t-277.5 -39t-328.5 -23t-286.5 -10.5h-33q-106 0 -199 8q-55 5 -120 19t-120.5 41t-92.5 72.5t-37 115.5z" />
    <glyph glyph-name="uni0603" unicode="&#x603;" horiz-adv-x="2245" 
d="M1843 472q14 0 46.5 4.5t69 17.5t70 35.5t51.5 57.5q-14 35 -52.5 44t-63.5 -9q-42 -24 -68.5 -67.5t-52.5 -82.5zM1619.5 439.5q44.5 22.5 59 36.5t23.5 25t14.5 18.5t14.5 10.5q7 0 13.5 -7.5t15.5 -16.5t22.5 -18t38.5 -9q5 6 13.5 21.5t19.5 33.5t20 34.5t12 21.5
q11 19 26.5 40t33.5 39t38.5 30.5t42.5 12.5q39 0 58.5 -26.5t19.5 -67.5q0 -66 -24.5 -123t-63.5 -100t-93 -68.5t-110 -25.5q-69 3 -96 36.5t-32 95.5q-29 -43 -65.5 -79.5t-219 -71t-681.5 -54.5q-209 4 -372 17q-140 6 -222 46q-46 22 -46 35q0 11 32 16
q68 10 228.5 0.5t603.5 5.5q384 26 507.5 47.5t168 44z" />
    <glyph glyph-name="uni0601" unicode="&#x601;" horiz-adv-x="3941" 
d="M1553 122q-249 13 -388 71t-183 99.5t-55 44.5t-49.5 -40.5t-100 -96.5t-117.5 -63q-30 -4 -50 -2q-37 5 -85 37q-37 16 -84 10t-83 -24q-65 -32 -127 -104q-33 -38 -49 -38q-6 0 -11 6q-8 13 24 73q52 102 136 187q117 120 223 146q31 8 61 8q32 0 55.5 -19t57.5 -28.5
t67.5 4t66.5 43.5q60 65 107 110t68 47t33 -15q5 -8 25 -27t82 -52.5t190.5 -72t373 -48t532.5 27.5t532.5 130t462.5 271q431 326 505 316q0 -2 3 -3q-50 -70 -220 -246q-56 -22 -298.5 -221t-424.5 -292.5t-377 -146.5t-424.5 -79t-478.5 -13z" />
    <glyph glyph-name="uni060C" unicode="&#x60c;" horiz-adv-x="642" 
d="M440 507q2 -89 -32 -135t-77 -52.5t-80.5 25t-44.5 95.5q-6 56 14 123.5t60 140.5q10 25 32 51t40.5 39.5t25 6.5t-13.5 -48q-10 -19 -30 -55t-33.5 -77.5t-13.5 -81.5q0 -39 29 -63q12 -11 20.5 -3t17.5 34q5 12 16.5 19.5t25.5 8.5t26 -6.5t18 -21.5z" />
    <glyph glyph-name="eight" unicode=":" horiz-adv-x="921" 
d="M213 788q-3 5 14.5 34t42 63t48.5 61t33 27q4 0 35.5 -19.5t66.5 -44.5t62.5 -47.5t27.5 -28.5q0 -11 -17.5 -42.5t-40.5 -62.5t-48 -57.5t-36 -27.5q-48 33 -98.5 68t-89.5 77zM224 265q-2 5 15 34t41.5 64t48.5 62t35 27q4 0 34.5 -20.5t65.5 -45t63.5 -46.5t28.5 -29
q0 -12 -17.5 -42.5t-41.5 -62.5t-49 -57.5t-35 -28.5q-48 33 -98 68t-91 77z" />
    <glyph glyph-name="uni061B" unicode="&#x61b;" horiz-adv-x="461" 
d="M351 740q2 -89 -32 -134.5t-76.5 -52t-80.5 25t-45 95.5q-6 55 16.5 120t57.5 143q12 24 33.5 51t40.5 40t24.5 6t-13.5 -47q-8 -16 -21 -40.5t-26 -52.5t-22 -59.5t-9 -61.5q0 -39 29 -63q13 -11 21 -3.5t18 33.5q5 13 16 20.5t25 8.5t26 -6.5t18 -22.5zM131 245
q-2 3 10 23t29 44t33 42.5t22 18.5q4 0 25 -14t45 -31t43.5 -32.5t19.5 -19.5q0 -8 -12 -29t-28 -43t-33 -40t-26 -19q-32 23 -67 47t-61 53z" />
    <glyph glyph-name="exclam" unicode="!" horiz-adv-x="474" 
d="M77 212q-2 4 10 24t29 43.5t33 42t22 18.5q4 0 25 -14t45 -30.5t43 -32t19 -20.5q0 -8 -11.5 -29t-27.5 -43t-33 -39.5t-26 -19.5q-32 23 -67 47t-61 53zM252 1219q3 8 6.5 5.5t3.5 -5.5q36 -391 12 -520.5t-58 -171t-61 -31.5q14 46 18.5 156.5t0.5 236t-8 133.5
t29.5 79.5t56.5 117.5z" />
    <glyph glyph-name="ellipsis" unicode="&#x2026;" horiz-adv-x="1853" 
d="M173.5 327.5q7.5 17.5 20.5 30.5t30.5 20t37.5 7q18 0 36 -7t31 -20t21 -30.5t8 -35.5q0 -20 -8 -37.5t-21 -30t-31 -19.5t-36 -7q-20 0 -37.5 7t-30.5 19.5t-20.5 30t-7.5 37.5q0 18 7.5 35.5zM794.5 327.5q7.5 17.5 21 30.5t30.5 20t38 7q19 0 37 -7t30.5 -20
t20.5 -30.5t8 -35.5q0 -20 -8 -37.5t-20.5 -30t-30.5 -19.5t-37 -7q-21 0 -38 7t-30.5 19.5t-21 30t-7.5 37.5q0 18 7.5 35.5zM1444.5 314q7.5 18 20.5 30.5t30 20t38 7.5q19 0 36.5 -7.5t30.5 -20t20.5 -30.5t7.5 -36q0 -20 -7.5 -37.5t-20.5 -30t-30.5 -20t-36.5 -7.5
q-21 0 -38 7.5t-30 20t-20.5 30t-7.5 37.5q0 18 7.5 36z" />
    <glyph glyph-name="quoteleft" unicode="&#x2019;" horiz-adv-x="469" 
d="M156 1706q-9 9 9.5 42.5t31.5 55.5q15 28 23 50.5t-0.5 37t-34.5 6.5t-49 17t-21 78.5t29.5 91.5t59 40.5t55.5 -15t36 -59.5q8 -27 9 -65q1 -66 -24.5 -134.5t-85.5 -130.5q-29 -24 -38 -15z" />
    <glyph glyph-name="quoteright" unicode="&#x2018;" horiz-adv-x="469" 
d="M280.5 2102.5q9.5 -9.5 -9 -42.5t-31.5 -55q-16 -29 -24 -51.5t0.5 -37t35 -6.5t49 -16.5t21 -78t-29 -91.5t-59.5 -41t-55.5 15t-36.5 60q-8 26 -9 64q-1 66 25 134.5t86 130.5q28 25 37.5 15.5z" />
    <glyph glyph-name="MAD_SMALL" unicode="&#x6e4;" horiz-adv-x="0" 
d="M623 1935q0 -46 -89 -164q-127 -167 -283 -187h-7q-11 0 -26 5t-29.5 10.5t-26.5 10.5t-16 5q-9 0 -25 -7t-34.5 -17.5t-37.5 -22.5t-34 -22.5t-24 -17.5q-6 -5 -7 -6q5 22 58 108q80 129 184 140h1q4 0 16.5 -4.5t27.5 -10t29.5 -10t23.5 -4.5q82 0 173 70q6 4 126 124z
" />
    <glyph glyph-name="DZABAR" unicode="&#x64b;" horiz-adv-x="0" 
d="M411 1851q-18 -18 -47.5 -32.5t-75.5 -39.5t-117 -64q-33 -19 -24.5 3t25.5 46t49 42t50.5 27t42.5 22t50.5 27t48.5 26.5t36 21.5t-3 -26t-35 -53zM387 1701q-18 -18 -47.5 -32.5t-75.5 -39.5t-117 -64q-33 -19 -24.5 3t25.5 46t49 42t50.5 27t42.5 22t50.5 27
t48.5 26.5t36 21.5t-3 -26t-35 -53z" />
    <glyph glyph-name="DPESH" unicode="&#x64c;" horiz-adv-x="0" 
d="M354 1895q0 -26 23.5 -42.5t42.5 -16.5q39 15 39 51q0 20 -17.5 35.5t-39.5 15.5q-12 0 -27 -8t-21 -35zM375 1757q-28 4 -48.5 25t-21.5 59q2 24 18 62t32.5 63.5t39 44.5t47.5 19q42 0 52.5 -31t10.5 -65q0 -54 -23 -101.5t-60 -86.5t-81 -72t-86 -60q-12 -5 -33 -17.5
t-24 -12.5q-2 -3 -9 -3q-8 0 0 16q13 22 31 34.5t39 29.5q35 26 62 50.5t54 45.5zM128 1876.5q38 75.5 80 115.5q12 16 37 38t30 25q5 5 12 5t0 -18q0 -3 -14 -23.5t-21 -33.5q-10 -12 -25.5 -28t-30.5 -35.5t-25.5 -44t-10.5 -54.5q0 -12 9 -31t21 -19q8 3 10 9t8 14
q6 15 15 21t17 -2q10 -4 10 -34q0 -27 -17 -55t-34.5 -37t-50.5 -7q-31 0 -44.5 59.5t24.5 135z" />
    <glyph glyph-name="DZER" unicode="&#x64d;" horiz-adv-x="0" 
d="M419 -535q-18 -18 -47.5 -32.5t-75.5 -39.5t-117 -64q-33 -19 -24.5 3t25.5 46t49 42t50.5 27t42.5 22t50.5 27t48.5 26.5t36 21.5t-3 -26t-35 -53zM395 -685q-18 -18 -47.5 -32.5t-75.5 -39.5t-117 -64q-33 -19 -24.5 3t25.5 46t49 42t50.5 27t42.5 22t50.5 27
t48.5 26.5t36 21.5t-3 -26t-35 -53z" />
    <glyph glyph-name="ZABAR" unicode="&#x64e;" horiz-adv-x="0" 
d="M392 1731q-18 -18 -47.5 -32.5t-75.5 -39.5t-117 -64q-33 -19 -24.5 3t25.5 46t49 42t50.5 27t42.5 22t50.5 27t48.5 26.5t36 21.5t-3 -26t-35 -53z" />
    <glyph glyph-name="PESH" unicode="&#x64f;" horiz-adv-x="0" 
d="M294 1865q0 -25 23 -42t43 -17q38 15 38 51q0 20 -17.5 35.5t-38.5 15.5q-12 0 -27 -8t-21 -35zM315 1728q-28 4 -48.5 25t-21.5 58q2 24 18 61.5t32.5 63t38.5 44.5t47 19q42 0 52.5 -30.5t10.5 -64.5q0 -54 -23 -101t-59.5 -86t-80.5 -71.5t-86 -59.5
q-12 -5 -32.5 -17.5t-23.5 -12.5q-3 -3 -9 -3q-8 0 0 16q13 22 30.5 34t39.5 29q35 27 61.5 51t53.5 45z" />
    <glyph glyph-name="ZER" unicode="&#x650;" horiz-adv-x="0" 
d="M405 -522q-18 -18 -47.5 -32.5t-75.5 -39.5t-117 -64q-33 -19 -24.5 3t25.5 46t49 42t50.5 27t42.5 22t50.5 27t48.5 26.5t36 21.5t-3 -26t-35 -53z" />
    <glyph glyph-name="TASHDEED" unicode="&#x651;" horiz-adv-x="0" 
d="M433 1814q13 0 14 -49q1 -21 -5 -54.5t-17.5 -58t-28 -37.5t-38.5 -13q-5 0 -11.5 1.5t-13 4t-12.5 4t-9 1.5q-6 0 -9 -1q-48 -33 -70 -33q-53 0 -53 60q0 104 62 151q1 -4 1 -8v-8q0 -7 -3 -19.5t-7 -25t-7 -24t-3 -13.5q0 -12 12.5 -17t26.5 -5h18q8 0 14.5 6t11 21
t8.5 45q8 49 28 49q11 0 11 -9q0 -5 -2 -12.5t-4.5 -17t-4 -18t-1.5 -12.5q0 -35 46 -35h10q9 38 16.5 71.5t19.5 55.5z" />
    <glyph glyph-name="JAZM" unicode="&#x652;" horiz-adv-x="0" 
d="M318 1682q0 24 -30 28.5t-47 4.5q-25 0 -44.5 -3.5t-45.5 -8.5q12 47 26 71q22 41 43 52t70 11q14 0 33.5 -1t36 -7t29 -17t12.5 -33q0 -27 -23.5 -75t-68 -87t-86 -50.5t-43.5 -11.5q-21 -5 -16.5 5t24.5 19q5 3 67.5 47t62.5 56z" />
    <glyph glyph-name="MAD_LARGE" unicode="&#x653;" horiz-adv-x="0" 
d="M731 1897q-10 -44 -54 -128t-109.5 -153.5t-125 -96.5t-114 -28t-82 13t-41 21.5t-22.5 7.5q-15 0 -47 -10.5t-59.5 -27.5t-51.5 -35.5t-48 -47.5t-34.5 -25.5t-13.5 0.5q1 37 79 164q138 209 300 225h2q5 0 18 -2.5t25.5 -11.5t19.5 -20t57 -9t93.5 21.5t91 63t72 77.5
t35.5 39t12 -7q2 -12 -3 -30z" />
    <glyph glyph-name="HAMZA_BELOW" unicode="&#x655;" horiz-adv-x="0" 
d="M183 -601q16 -16 42 -16q23 0 47.5 22t25 23t19 34.5t34.5 49.5q13 13 28 21q32 17 51 15t26 -6t11 -13q-2 -57 -28 -106q-7 -13 -19.5 0.5t-35.5 13.5q-10 0 -23 -4.5t-25.5 -15t-17.5 -21.5t-25.5 -41t-41.5 -45.5t-40.5 -23.5t-35.5 -7t-29.5 6t-21 19t36.5 90
q16 11 22 5z" />
    <glyph glyph-name="arabicdecimalseparator" unicode="&#x66b;" horiz-adv-x="623" 
d="M176 -64q0 1 10 21t25 51t32.5 68.5t32.5 74t25 67.5t10 49q0 56 -24 57q1 -1 -3 -3q-5 -3 -14.5 -7t-24 -7t-33.5 -3q-48 0 -48 64q0 32 13 71.5t34 73.5t47.5 57t54.5 23q17 0 34 -13.5t31 -34t22.5 -44.5t8.5 -45v-4q-2 -55 -13.5 -116t-29 -121.5t-39.5 -115.5
t-45 -96.5t-45.5 -66.5t-41.5 -25t-19 25z" />
    <glyph glyph-name="arabicthousandseparator" unicode="&#x66c;" horiz-adv-x="587" 
d="M397 568q0 -1 -10 -21t-25 -51t-32.5 -68.5t-32.5 -74t-25 -67.5t-10 -49q0 -56 24 -57q-1 1 3 3q5 3 14.5 7t24 7t33.5 3q48 0 48 -64q0 -32 -13 -71.5t-34 -73.5t-47.5 -57t-54.5 -23q-17 0 -34 13.5t-31 34t-22.5 44.5t-8.5 45v4q2 55 13.5 116t29 121.5t39.5 115.5
t45 96.5t45.5 66.5t41.5 25t19 -25z" />
    <glyph glyph-name="HAMZA_ABOVE" unicode="&#x654;" horiz-adv-x="0" 
d="M199 1693q16 -16 42 -16q23 0 47.5 22t25 23t19 34.5t34.5 49.5q13 13 28 21q32 17 51 15t26 -6t11 -13q-2 -57 -28 -106q-7 -13 -19.5 0.5t-35.5 13.5q-10 0 -23 -4.5t-25.5 -15t-17.5 -21.5t-25.5 -41t-41.5 -45.5t-40.5 -23.5t-35.5 -7t-29.5 6t-21 19t36.5 90
q16 11 22 5z" />
    <glyph glyph-name="HAMZA_ABOVE" unicode="&#x674;" horiz-adv-x="0" 
d="M199 1693q16 -16 42 -16q23 0 47.5 22t25 23t19 34.5t34.5 49.5q13 13 28 21q32 17 51 15t26 -6t11 -13q-2 -57 -28 -106q-7 -13 -19.5 0.5t-35.5 13.5q-10 0 -23 -4.5t-25.5 -15t-17.5 -21.5t-25.5 -41t-41.5 -45.5t-40.5 -23.5t-35.5 -7t-29.5 6t-21 19t36.5 90
q16 11 22 5z" />
    <glyph glyph-name="KZABAR" unicode="&#x670;" horiz-adv-x="0" 
d="M358 2042q2 -5 2 -16q0 -42 -1 -115t-4.5 -181t-64.5 -185l7 267q3 60 17 118t36 114z" />
    <glyph glyph-name="KZER" unicode="&#x656;" horiz-adv-x="0" 
d="M357 -461q2 -5 2 -16q0 -42 -1 -115t-4.5 -181t-64.5 -185l7 267q3 60 17 118t36 114z" />
    <glyph glyph-name="KPESH" unicode="&#x657;" horiz-adv-x="0" 
d="M261 1852.5q51 100.5 106 155.5q17 19 50.5 49t38.5 34q7 7 16 7q10 0 0 -24q0 -4 -18 -31t-27 -45q-14 -16 -35 -38t-41 -47.5t-34 -58.5t-14 -72q0 -16 12.5 -41.5t28.5 -25.5q11 4 13.5 12t9.5 20q8 19 20.5 27t23.5 -3q12 -5 12 -45q0 -36 -22 -74t-46 -50t-67 -8
q-41 0 -59.5 79t32.5 179.5z" />
    <glyph glyph-name="uni0610" unicode="&#x610;" horiz-adv-x="0" 
d="M518 2009q-19 48 -70 44q-32 0 -70 -37q-54 -85 -69.5 -103.5t-6.5 -19.5t64.5 12t137.5 70zM258 1895q20 46 38.5 72.5t61 83.5t76.5 85t71 13.5t48 -40.5t2.5 -79t-37.5 -116.5t-95 -116.5q-25 -21 -82 -36t-117 -13q0 -2 -14.5 -61t-22 -76t-20 -46t-40.5 -41
q4 126 -1.5 181t-7.5 123q10 97 60 115q19 -22 30.5 -35.5t49.5 -12.5z" />
    <glyph glyph-name="RZ" unicode="&#x613;" horiz-adv-x="0" 
d="M678 2059q13 0 13 -25q0 -21 -8.5 -55.5t-14.5 -65.5t-21.5 -73t-30.5 -78.5t-33 -74t-40 -54t-44 -22.5t-52 -16.5t-54.5 -16t-43.5 -9t-28 -3.5q-4 0 -4 1q0 10 15 20.5t41.5 27t65 46t68 57t41 39.5t20 22.5t14.5 22.5t12.5 28.5t16 39.5t10.5 37q0 2 27 98
q15 54 30 54zM463 2023q-18 47 -69 44q-31 0 -69 -38q-54 -83 -69 -101.5t-6 -19.5t63.5 12t135.5 69zM262 2196q0 -8 -8 -25t-20.5 -33.5t-26 -28.5t-24.5 -12q-6 0 -21.5 7t-31 17.5t-27.5 22.5t-12 20t8.5 27.5t21 39.5t25.5 35t21 15q11 0 27 -9t31 -22.5t26 -28
t11 -25.5zM207 1910q19 45 37 71.5t60 83t76 84t70.5 13t47 -40t2.5 -78t-36.5 -115t-94.5 -115.5q-25 -20 -81 -35t-95 -15q0 -2 -7 -32t-9.5 -43.5t-6 -29t-6.5 -29.5t-15.5 -42.5t-39.5 -40.5l-4 127q-5 27 -4.5 46.5t-11 86l-11.5 66.5q0 68 49 86q19 -22 30.5 -35.5
t49.5 -12.5z" />
    <glyph glyph-name="AS" unicode="&#x611;" horiz-adv-x="0" 
d="M193.5 1565q-6.5 16 -6.5 66.5t-9 161.5q1 17 20.5 58t59.5 43q1 -19 6.5 -28.5t18 -19t31.5 -7.5q11 20 28.5 48.5t43.5 66.5q33 49 71 72.5t80 24.5q9 0 19 -4t17.5 -10.5t12.5 -15t5 -17.5q0 -26 -14.5 -37t-35.5 -14t-46 -3t-46 -5t-35.5 -19.5t-14.5 -44.5
q0 -8 6 -17.5t14.5 -18t33 -13.5t49.5 7.5t58 45.5t40 28t11 -5q-19 -50 -51.5 -92t-71.5 -74t-81 -50t-81 -18q-53 0 -73 8q-14 -71 -34 -111q-19 -22 -25.5 -6z" />
    <glyph glyph-name="RHA" unicode="&#x612;" horiz-adv-x="0" 
d="M102 1686q-14 5 -5 18q58 81 90.5 115.5t57 58.5t80.5 72q-5 17 -44 28.5t-76 11.5q-28 0 -40.5 -6t-36.5 -29t-48.5 -50.5t-30 -16.5t26 55t58.5 70.5t67.5 50.5t73.5 24h3q28 -3 75 -8h2q35 -5 70 -21q58 -16 -6 -101l-27 -24l-44 -39l-159 -138q-34 -31 -64 -67
q-9 -9 -23 -4zM665 2081q13 0 13 -26q0 -21 -8.5 -57t-15 -67t-22.5 -74.5t-31 -81t-33.5 -76t-41 -55.5t-45.5 -23t-53.5 -17t-62 -24t-41 -7t27 38t72 61.5t65.5 57.5t42 40.5t20.5 23.5t14.5 23.5t13 29t16.5 40.5t10.5 38q1 2 28 100q15 56 31 56z" />
    <glyph glyph-name="glyph194" horiz-adv-x="0" 
d="M258 239h1q21 -1 91 -58q22 -18 43 -40q11 -14 11 -25v-4q0 -24 -34 -77q-17 -25 -62 -72q-34 -33 -35 -33q-17 -6 -24 -6q-32 6 -113 69q-26 23 -26 32v3q0 25 44 81q29 41 68 106q20 24 36 24z" />
    <glyph glyph-name="glyph195" horiz-adv-x="0" 
d="M374 -180q1 -2 1 -10q0 -18 -15 -51t-33.5 -58.5t-39.5 -45t-39 -23.5q-2 0 -11.5 7t-22 18t-27 23.5t-27 24.5t-21 20.5t-8.5 10.5q0 25 53 115.5t80 66t49.5 -42.5t40.5 -33.5t20 -21.5zM239 4q-31 -30 -96 -108q-8 -8 -21 -14q-29 0 -129 92l-9 12v6q4 42 109 185
q21 20 31 20h3q18 0 113 -92l4 -4q46 50 86 116q19 25 36 25q32 -6 123 -93q12 -20 12 -30v-9q-11 -68 -123 -176q-13 -6 -22 -6q-18 0 -117 76z" />
    <glyph glyph-name="glyph196" horiz-adv-x="0" 
d="M249 4q-31 -30 -96 -108q-8 -8 -21 -14q-29 0 -129 92l-9 12v6q4 42 109 185q21 20 31 20h3q18 0 113 -92l4 -4q46 50 86 116q19 25 36 25q32 -6 123 -93q12 -20 12 -30v-9q-11 -68 -123 -176q-13 -6 -22 -6q-18 0 -117 76z" />
    <glyph glyph-name="glyph197" horiz-adv-x="0" 
d="M347 236q8 -9 -1 -24v-2q-10 -16 -22.5 -38t-27 -48.5t-30 -57.5t-23 -56.5t-9.5 -56t15 -58.5q22 -14 33 1l62 68q26 -23 26 -58q0 -25 -12 -51.5t-31 -48.5t-42.5 -36t-45.5 -14q-19 0 -33.5 10.5t-24 27t-14.5 36t-1.5 65t53.5 157.5q2 5 30 57t75 118q15 18 23 9z
" />
    <glyph glyph-name="glyph198" horiz-adv-x="0" 
d="M58 -41h1q21 -1 91 -58q22 -18 43 -40q11 -14 11 -25v-4q0 -24 -34 -77q-17 -25 -62 -72q-34 -33 -35 -33q-17 -6 -24 -6q-32 6 -113 69q-26 23 -26 32v3q0 25 44 81q29 41 68 106q20 24 36 24z" />
    <glyph glyph-name="glyph199" horiz-adv-x="0" 
d="M230 -430q1 -2 1 -10q0 -18 -15 -51t-33.5 -58.5t-39.5 -45t-39 -23.5q-2 0 -11.5 7t-22 18t-27 23.5t-27 24.5t-21 20.5t-8.5 10.5q0 25 53 115.5t80 66t49.5 -42.5t40.5 -33.5t20 -21.5zM95 -246q-31 -30 -96 -108q-8 -8 -21 -14q-29 0 -129 92l-9 12v6q4 42 109 185
q21 20 31 20h3q18 0 113 -92l4 -4q46 50 86 116q19 25 36 25q32 -6 123 -93q12 -20 12 -30v-9q-11 -68 -123 -176q-13 -6 -22 -6q-18 0 -117 76z" />
    <glyph glyph-name="glyph200" horiz-adv-x="0" 
d="M95 -246q-31 -30 -96 -108q-8 -8 -21 -14q-29 0 -129 92l-9 12v6q4 42 109 185q21 20 31 20h3q18 0 113 -92l4 -4q46 50 86 116q19 25 36 25q32 -6 123 -93q12 -20 12 -30v-9q-11 -68 -123 -176q-13 -6 -22 -6q-18 0 -117 76z" />
    <glyph glyph-name="glyph201" horiz-adv-x="0" 
d="M151 -234q26 -23 26 -59q0 -24 -12 -50.5t-31 -48t-42.5 -36t-45.5 -14.5q-19 0 -33.5 10.5t-24 27t-14.5 35.5t-5 37q0 70 59 180q2 5 30 50.5t82 132.5h11q-2 -8 -19 -38t-37 -69t-36.5 -80t-16.5 -71q0 -48 24 -100z" />
    <glyph glyph-name="glyph202" horiz-adv-x="0" 
d="M254 -4h1q21 -1 91 -58q22 -18 43 -40q11 -14 11 -25v-4q0 -24 -34 -77q-17 -25 -62 -72q-34 -33 -35 -33q-17 -6 -24 -6q-32 6 -113 69q-26 23 -26 32v3q0 25 44 81q29 41 68 106q20 24 36 24z" />
    <glyph glyph-name="NQTA_BAY" horiz-adv-x="0" 
d="M372 110q1 -2 1 -10q0 -18 -16 -51t-36 -58.5t-43 -45t-42 -23.5q-2 0 -12 7t-23.5 18t-29.5 23.5t-29.5 24.5t-22.5 20.5t-9 10.5q0 25 57 115.5t86 66t53.5 -42.5t44 -33.5t21.5 -21.5zM401 -29q33 -6 128 -93q13 -20 13 -30v-9q-11 -68 -128 -176q-14 -6 -23 -6
q-20 0 -127 80l-15 6q-16 0 -127 -127q-8 -8 -22 -14q-30 0 -135 92l-9 12v6q4 42 114 185q22 20 32 20h3q19 0 118 -92q18 -14 26 -14h6q58 56 108 135q20 25 38 25z" />
    <glyph glyph-name="NQTA_PAY" horiz-adv-x="0" 
d="M406 -29q33 -6 128 -93q13 -20 13 -30v-9q-11 -68 -128 -176q-14 -6 -23 -6q-20 0 -127 80l-15 6q-16 0 -127 -127q-8 -8 -22 -14q-30 0 -135 92l-9 12v6q4 42 114 185q22 20 32 20h3q19 0 118 -92q18 -14 26 -14h6q58 56 108 135q20 25 38 25z" />
    <glyph glyph-name="NQTA_YEY" horiz-adv-x="0" 
d="M280 308h10q-9 -81 -0.5 -94.5t-1.5 -241.5q95 87 124 87h17q51 0 61 -92v-8q0 -47 -91 -172q-36 -47 -132 -70q-139 -49 -198 -63q-13 4 -15 10q0 31 51 53q113 61 113 220q0 38 -3 113t61 256zM255 -190h2q164 72 164 104q-16 38 -41 38h-7q-63 -28 -102 -97
q-9 -20 -16 -45z" />
    <glyph glyph-name="NQTA_HAY" horiz-adv-x="0" 
d="M147 -157q16 -16 43 -16q43 -1 88.5 68.5t79.5 91t54 19.5t27 -6t11 -14q-9 -78 -36 -128q-7 -14 -20 0t-37 14q-10 0 -23.5 -4.5t-26.5 -15.5t-46.5 -57t-47.5 -58.5t-34.5 -20.5t-37 -7t-30.5 6t-21.5 19.5t34.5 103.5q17 11 23 5z" />
    <glyph glyph-name="NQTA_BAY_BYEYL" horiz-adv-x="0" 
d="M460 -20h1q21 -1 91 -58q22 -18 43 -40q11 -14 11 -25v-4q0 -24 -34 -77q-17 -25 -62 -72q-34 -33 -35 -33q-17 -6 -24 -6q-32 6 -113 69q-26 23 -26 32v3q0 25 44 81q29 41 68 106q20 24 36 24z" />
    <glyph glyph-name="NQTA_PAY_BYEYL" horiz-adv-x="0" 
d="M637 -409q1 -2 1 -10q0 -18 -15 -51t-33.5 -58.5t-39.5 -45t-39 -23.5q-2 0 -11.5 7t-22 18t-27 23.5t-27 24.5t-21 20.5t-8.5 10.5q0 25 53 115.5t80 66t49.5 -42.5t40.5 -33.5t20 -21.5zM502 -225q-31 -30 -96 -108q-8 -8 -21 -14q-29 0 -129 92l-9 12v6q4 42 109 185
q21 20 31 20h3q18 0 113 -92l4 -4q46 50 86 116q19 25 36 25q32 -6 123 -93q12 -20 12 -30v-9q-11 -68 -123 -176q-13 -6 -22 -6q-18 0 -117 76z" />
    <glyph glyph-name="NQTA_YEY_BYEYL" horiz-adv-x="0" 
d="M502 -225q-31 -30 -96 -108q-8 -8 -21 -14q-29 0 -129 92l-9 12v6q4 42 109 185q21 20 31 20h3q18 0 113 -92l4 -4q46 50 86 116q19 25 36 25q32 -6 123 -93q12 -20 12 -30v-9q-11 -68 -123 -176q-13 -6 -22 -6q-18 0 -117 76z" />
    <glyph glyph-name="NQTA_HAY_BYEYL" horiz-adv-x="0" 
d="M579 -255q26 -23 26 -59q0 -24 -12 -50.5t-31 -48t-42.5 -36t-45.5 -14.5q-19 0 -33.5 10.5t-24 27t-14.5 35.5t-5 37q0 70 59 180q2 5 30 50.5t82 132.5h11q-2 -8 -19 -38t-37 -69t-36.5 -80t-16.5 -71q0 -48 24 -100z" />
    <glyph glyph-name="S_1" horiz-adv-x="2866" 
d="M226 150q-134 72 -134 229q0 116 14.5 116.5t26.5 -9.5q51 -41 172 -78.5t323 -59t462.5 -18.5t472 18t408 46t352 73.5t242 84t122.5 94.5t59.5 101.5t41.5 46.5t-0.5 -74t-81.5 -181t-174 -181.5t-278.5 -125t-318.5 -79.5t-283 -42.5t-366 -30t-488 -9.5t-422 34
q-100 17 -150 45z" />
    <glyph glyph-name="S_2" horiz-adv-x="2932" 
d="M2606.5 414.5q-41.5 -40.5 -125 -88.5t-227.5 -93q-168 -53 -319 -80t-283 -42.5t-366 -30t-488 -9.5t-422 34q-100 17 -150 45q-134 72 -134 229q0 116 14.5 116.5t26.5 -9.5q51 -41 172 -78.5t323 -59t462.5 -18.5t472 18t408 46t325 62t206 62.5t103.5 47.5
q60 36 119.5 109.5t88.5 87.5t53 5q28 -10 68 -22t74 24q15 17 28 23q15 6 26 -2q20 -15 6 -47q-10 -21 -33 -51q-14 -18 -32 -38q-50 -57 -70.5 -66.5t-35 -13t-31.5 2.5q-91 15 -113 14.5t-46 -40.5q-20 -32 -39.5 -64.5t-61 -73z" />
    <glyph glyph-name="S_3" horiz-adv-x="3013" 
d="M2688 510q-60 -90 -156 -152q-111 -73 -278.5 -125.5t-318.5 -79.5t-283 -42.5t-366 -30t-488 -9.5t-422 34q-100 17 -150 45q-134 72 -134 229q0 116 14.5 116.5t26.5 -9.5q51 -41 172 -78.5t323 -59t462.5 -18.5t472 18t408 46t352 73.5t242 84t122.5 94.5t59.5 101.5
t41.5 46.5t0 -74q-14 -53 -52 -127q177 -4 299 66q45 -51 11 -86.5t-68.5 -65t-70 -53.5t-58.5 -18q-23 5 -161 74z" />
    <glyph glyph-name="S_4" horiz-adv-x="2847" 
d="M2604.5 583q55.5 33 82.5 73q5 7 10 15q1 17 -6 33.5t-36 24.5q-3 0 -9 -2t-9 -7t-11 -11.5t-10 -7.5q-14 -7 -39 -7q-29 0 -55.5 11t-47 29.5t-32.5 43.5t-12 53q0 12 9 43.5t21 67t23.5 68.5t16.5 49q40 90 112 90q20 -5 47.5 -25t49.5 -51.5t46.5 -82.5t31.5 -149
q1 -19 -1.5 -74t-10.5 -76q-13 -53 -46.5 -122t-90 -123t-137 -102.5t-248 -101t-318.5 -79.5t-283 -42.5t-366 -30t-488 -9.5t-422 34q-100 17 -150 45q-134 72 -134 229q0 116 14.5 116.5t26.5 -9.5q51 -41 172 -78.5t323 -59t462.5 -18.5t472 18t408 46t352.5 74
q81 22 153.5 47t128 58z" />
    <glyph glyph-name="S_5" horiz-adv-x="3070" 
d="M2254 233q-168 -53 -320.5 -79t-292.5 -42.5t-364.5 -31t-478.5 -9.5t-422 34q-100 17 -150 45q-134 72 -134 229q0 116 14.5 116.5t26.5 -9.5q51 -41 172 -78.5t323 -59t462.5 -18.5t472 18t408 46t302.5 57t141 41t45 20q0 9 2 37.5t28 112.5q14 40 38.5 85.5t45 76.5
t58.5 70q49 47 86 63q40 20 70 20h4q20 0 46 -13q38 -21 57 -72q11 -34 11 -66v-34q0 -46 -31 -124q-20 -57 -36.5 -90.5t-7.5 -32.5q37 4 101 30q60 27 100.5 53t77.5 49q27 4 44 -19t-3 -55q-23 -31 -75 -73.5t-145.5 -79.5t-174.5 -58q-47 -12 -92 -15q-36 -3 -60 -7.5
t-109.5 -46.5t-239.5 -90zM2630 572q60 13 112.5 45t80.5 63q15 16 15 29q7 35 -20.5 70t-91.5 36t-115.5 -49t-51 -72t7 -49t24.5 -49q10 -14 39 -24z" />
    <glyph glyph-name="S_6" horiz-adv-x="3116" 
d="M2704 1134v229q25 122 44.5 187t53.5 139.5t86 149.5q61 80 443 365q257 212 307 271q10 15 17.5 16t6 -12t-9.5 -30q-10 -21 -31 -65q-40 -80 -91 -139.5t-177 -166t-272.5 -217.5t-178.5 -135t-48.5 -43.5t-21 -48.5t-6.5 -87v-93h1q0 -9 -1 -18q1 -100 0 -328v-178
q-8 -116 -38 -210q-13 -40 -30 -76q-24 -59 -51 -112q-2 -4 -5 -8q-2 -5 -12 -20t-28 -38q-54 -69 -130 -118q-111 -73 -278.5 -125.5t-318.5 -79.5t-283 -42.5t-366 -30t-488 -9.5t-422 34q-100 17 -150 45q-134 72 -134 229q0 116 14.5 116.5t26.5 -9.5q51 -41 172 -78.5
t323 -59t462.5 -18.5t472 18t408 46t352 73.5t242.5 84.5q37 18 62.5 35.5t37 34.5t18.5 36q10 29 15 68t5 113.5t1 304.5z" />
    <glyph glyph-name="S_7" horiz-adv-x="3116" 
d="M2944.5 2032.5q-76.5 -62.5 -57 -24t40 75.5t60 77t106 92t140 104t137 102t119.5 110.5t20.5 -18t-123 -161.5t-174 -148t-139.5 -106t-129.5 -103.5zM2704 1134v229q25 122 44.5 187t53.5 139.5t86 149.5q61 80 443 365q257 212 307 271q10 15 17.5 16t6 -12t-9.5 -30
q-10 -21 -31 -65q-40 -80 -91 -139.5t-177 -166t-272.5 -217.5t-178.5 -135t-48.5 -43.5t-21 -48.5t-6.5 -87v-93h1q0 -9 -1 -18q1 -100 0 -328v-178q-8 -116 -38 -210q-13 -40 -30 -76q-24 -59 -51 -112q-2 -4 -5 -8q-2 -5 -12 -20t-28 -38q-54 -69 -130 -118
q-111 -73 -278.5 -125.5t-318.5 -79.5t-283 -42.5t-366 -30t-488 -9.5t-422 34q-100 17 -150 45q-134 72 -134 229q0 116 14.5 116.5t26.5 -9.5q51 -41 172 -78.5t323 -59t462.5 -18.5t472 18t408 46t352 73.5t242.5 84.5q37 18 62.5 35.5t37 34.5t18.5 36q10 29 15 68
t5 113.5t1 304.5z" />
    <glyph glyph-name="S_8" horiz-adv-x="3008" 
d="M1725.5 918.5q219.5 12.5 408 60.5t382.5 143t519.5 346t356.5 254t21 -27.5t-56 -100.5t-66.5 -94t-96 -57.5t-285.5 -224.5t-360 -278.5t-279 -140.5t-275.5 -87.5t-338.5 -51.5t-321 -6t-170 7q-89 -378 -149 -496q-26 -56 -71 -124.5t-128 -158.5l-23 -21
q-77 -67 -124 -90q-39 -23 -81 -36q-63 -21 -112 -21h-39q-140 0 -247 108q-91 102 -91 290q0 154 66 323t141 275l4 5h6q10 0 12 -14v-4q0 -30 -48 -138q-27 -68 -44 -121q-27 -90 -28.5 -138t8 -96t36.5 -88t64 -69.5t90.5 -49t118.5 -19.5t114 12q67 17 127 56
q103 68 157.5 143.5t79 130t39.5 108.5q11 49 7 156.5t-11 250.5q38 127 87 163q8 6 13 3.5t9 -10.5q8 -18 27 -33q22 -17 176.5 -34.5t374 -5z" />
    <glyph glyph-name="S_9" horiz-adv-x="2982" 
d="M2822 1008q6 36 33.5 106.5t81.5 189.5q48 125 96 188q61 80 344 292.5t353 275.5t72 63t2 -1v-1q0 -3 -37 -77.5t-79.5 -124.5t-61.5 -69q-323 -259 -433 -347t-142 -112t-54.5 -48t-26.5 -43q-1 -4 -19 -96t-46 -285t-31 -269v-13q-3 -67 3 -114q5 -52 22.5 -92
t43 -69.5t71 -43.5t53.5 -12q13 -82 -7 -143t-60.5 -88.5t-77.5 -24.5q-26 5 -51.5 19t-53.5 52.5t-45 114.5t-10 192t12 177l1 31l2 42q-62 -106 -165 -206t-318.5 -197t-581 -165.5t-859 -65t-627.5 76t-134 229.5q0 116 14.5 116.5t26.5 -9.5q51 -41 172 -78.5t323 -59
t488 -18t592.5 47t559.5 126t380 204.5t174 329z" />
    <glyph glyph-name="S_10" horiz-adv-x="2982" 
d="M3036 1660q-9 6 17.5 50.5t39.5 56.5q104 92 221 176.5t178.5 132.5t87.5 72q17 19 22.5 19.5t3.5 -10.5t-22 -54.5t-82.5 -97.5t-184 -143t-197 -145t-84.5 -57zM2822 1008q6 36 33.5 106.5t81.5 189.5q48 125 96 188q61 80 344 292.5t353 275.5t72 63t2 -1v-1
q0 -3 -37 -77.5t-79.5 -124.5t-61.5 -69q-323 -259 -433 -347t-142 -112t-54.5 -48t-26.5 -43q-1 -4 -19 -96t-46 -285t-31 -269v-13q-3 -67 3 -114q5 -52 22.5 -92t43 -69.5t71 -43.5t53.5 -12q13 -82 -7 -143t-60.5 -88.5t-77.5 -24.5q-26 5 -51.5 19t-53.5 52.5
t-45 114.5t-10 192t12 177l1 31l2 42q-62 -106 -165 -206t-318.5 -197t-581 -165.5t-859 -65t-627.5 76t-134 229.5q0 116 14.5 116.5t26.5 -9.5q51 -41 172 -78.5t323 -59t488 -18t592.5 47t559.5 126t380 204.5t174 329z" />
    <glyph glyph-name="S_11" horiz-adv-x="764" 
 />
    <glyph glyph-name="glyph222" horiz-adv-x="0" 
d="M-366 -55h1q21 -1 91 -58q22 -18 43 -40q11 -14 11 -25v-4q0 -24 -34 -77q-17 -25 -62 -72q-34 -33 -35 -33q-17 -6 -24 -6q-32 6 -113 69q-26 23 -26 32v3q0 25 44 81q29 41 68 106q20 24 36 24z" />
    <glyph glyph-name="glyph223" horiz-adv-x="0" 
d="M-230 -430q1 -2 1 -10q0 -18 -15 -51t-33.5 -58.5t-39.5 -45t-39 -23.5q-2 0 -11.5 7t-22 18t-27 23.5t-27 24.5t-21 20.5t-8.5 10.5q0 25 53 115.5t80 66t49.5 -42.5t40.5 -33.5t20 -21.5zM-365 -246q-31 -30 -96 -108q-8 -8 -21 -14q-29 0 -129 92l-9 12v6
q4 42 109 185q21 20 31 20h3q18 0 113 -92l4 -4q46 50 86 116q19 25 36 25q32 -6 123 -93q12 -20 12 -30v-9q-11 -68 -123 -176q-13 -6 -22 -6q-18 0 -117 76z" />
    <glyph glyph-name="glyph224" horiz-adv-x="0" 
d="M-365 -246q-31 -30 -96 -108q-8 -8 -21 -14q-29 0 -129 92l-9 12v6q4 42 109 185q21 20 31 20h3q18 0 113 -92l4 -4q46 50 86 116q19 25 36 25q32 -6 123 -93q12 -20 12 -30v-9q-11 -68 -123 -176q-13 -6 -22 -6q-18 0 -117 76z" />
    <glyph glyph-name="glyph225" horiz-adv-x="0" 
d="M-160 -269q26 -23 26 -59q0 -24 -12 -50.5t-31 -48t-42.5 -36t-45.5 -14.5q-19 0 -33.5 10.5t-24 27t-14.5 35.5t-5 37q0 70 59 180q2 5 30 50.5t82 132.5h11q-2 -8 -19 -38t-37 -69t-36.5 -80t-16.5 -71q0 -48 24 -100z" />
    <glyph glyph-name="uni0640" unicode="&#x640;" horiz-adv-x="0" 
 />
    <glyph glyph-name="uni0640" unicode="&#x6e3;" horiz-adv-x="0" 
 />
    <glyph glyph-name="uni06C2" unicode="&#x6c2;" horiz-adv-x="658" 
 />
    <glyph glyph-name="uni06D3" unicode="&#x6d3;" horiz-adv-x="658" 
 />
    <glyph glyph-name="glyph230" horiz-adv-x="822" 
 />
    <glyph glyph-name="glyph231" horiz-adv-x="822" 
 />
    <glyph glyph-name="glyph232" horiz-adv-x="934" 
 />
    <glyph glyph-name="glyph233" horiz-adv-x="1019" 
 />
    <glyph glyph-name="glyph234" horiz-adv-x="949" 
 />
    <glyph glyph-name="KernSpace" unicode="&#x600;" horiz-adv-x="2323" 
d="M1853 424q37 54 85 94t104 57q7 2 9 0t2 -6t-2 -9t-3 -6q-15 -18 -37 -43t-43.5 -51.5t-40.5 -54t-28 -52.5q-13 -31 -5.5 -59t29.5 -52.5t54 -44t66 -34t67 -24.5t59 -13q9 -2 11 -5.5t0.5 -8t-5 -10t-3.5 -10.5q-13 -15 -22.5 -23.5t-19 -15.5t-19.5 -15t-23 -23
q-3 -6 -5.5 -9t-13.5 -3q-30 5 -64 15.5t-69.5 18.5t-71.5 11t-70 -7q-103 -32 -195 -54.5t-178.5 -36t-170 -20t-168.5 -6.5q-87 0 -174.5 5.5t-234.5 20t-208.5 25t-123 26.5t-128.5 42q-47 16 -70 26t-21.5 14.5t27.5 5.5t77 1q281 -20 426 -26t219.5 -4.5t295 5.5
t353 26.5t268.5 65.5q-1 32 1.5 68t10.5 71.5t21 68t32 59.5z" />
    <glyph glyph-name="glyph237" horiz-adv-x="1367" 
d="M1254 958q7 -47 10 -88t3 -76q0 -52 -12.5 -108.5t-32.5 -111.5t-46 -106t-54 -92t-54.5 -69.5t-48.5 -39.5q-50 -24 -94 -24q-72 0 -116 65l-12 -14q-11 -15 -30 -37t-44.5 -47.5t-53.5 -47.5t-56.5 -36.5t-55.5 -14.5q-30 0 -59 13.5t-54.5 37.5t-45 56.5t-29.5 70.5
q-9 -3 -29 -25.5t-45 -51.5t-51.5 -57.5t-48.5 -42.5q-33 -20 -75.5 -39t-85 -33.5t-81.5 -23.5t-64 -9q-6 0 -12.5 0.5t-6.5 5.5q0 31 259 194q31 25 56 44.5t48.5 39t48 41t53.5 50t64.5 68t75 88.5t60 76.5t32 28.5t2 -27t-17.5 -54t-11 -56t5.5 -48.5t25 -35t40.5 -27.5
t56 -11q33 0 60 7t50.5 23.5t44 42t40.5 63.5q30 52 51 75q12 3 18.5 -14t20 -29.5t32 -21.5t42.5 -9q103 0 119 49v200q0 9 5.5 36t14 63t19 77t21.5 78.5t21 67.5t17 44l8 -9q2 -2 2 -13q0 -12 -2 -36t-2 -45q0 -19 1 -37t4 -38zM1000 1085q13 0 13 -75q0 -46 -6.5 -85
t-20 -67t-33.5 -44t-46 -16q-6 0 -13.5 2t-15.5 5t-15 5t-11 2q-7 0 -10 -1q-57 -39 -87 -39q-64 0 -64 73q0 128 74 184q1 -5 1.5 -11t0.5 -12q0 -7 -3 -21t-6 -29t-6 -29t-3 -21q0 -17 14 -21.5t28 -4.5q13 0 22.5 -0.5t17 7t13.5 25.5t11 56q9 60 33 60q14 0 14 -12
q0 -4 -2 -14t-4.5 -21.5t-4.5 -22t-2 -15.5q0 -43 50 -43h8q4 0 9 1v12q0 172 44 172zM943 1603q0 -9 0.5 -28.5t0.5 -40.5t0.5 -40.5t0.5 -28.5q0 -210 -90 -324q8 40 14 136.5t8 251.5q16 97 66 279q11 -5 11 -30q0 -12 -1.5 -36.5t-4 -51.5t-4 -51t-1.5 -36z" />
    <glyph glyph-name="glyph238" horiz-adv-x="720" 
d="M695 500q-36 -19 -52 -32q-16 -14 -13 -22.5t14 -23t29 -16t33.5 6.5t36 8t32 -8.5t19.5 -24.5t-4 -64.5t-52 -122.5t-105.5 -118.5t-108.5 -45.5q-25 -1 -45.5 3t-41.5 13t-45 31t-43 64q-13 29 -18 54q-2 6 -4 22q-4 11 -11 -8q-9 -11 -35 -51q-1 -2 -2 -3
q-33 -49 -50 -71t-34.5 -33t-83.5 -23.5t-107.5 -20.5t-65 -13t-20.5 10.5t138 117.5q26 19 49 37q94 72 127 104q41 40 59 61t59 96t105 251q14 33 31.5 27.5t4 -56.5t-24.5 -98t-12 -97.5t25 -88.5q13 -19 24 -16q67 143 119 186q37 46 98 68v-90q-13 -6 -25 -13z" />
    <glyph glyph-name="glyph239" horiz-adv-x="388" 
d="M100 233q12 46 23 100t16.5 104t11 236t8.5 245t9.5 106.5t34.5 136t71 188.5q8 4 11 -5.5t2.5 -13t-6.5 -30t-12 -89.5v-246q0 -53 -10 -334q-1 -46 -16.5 -118.5t-42.5 -132.5q-68 -153 -100 -147z" />
    <glyph glyph-name="glyph240" horiz-adv-x="1862" 
d="M457.5 118q-159.5 8 -223 31t-99.5 71q-28 49 -31 110q-4 84 60 306q17 59 36 58t14.5 -35t-6.5 -60q-7 -82 31 -126q24 -31 76.5 -53t133 -30.5t211 -13.5t351.5 11t378 49.5t219.5 77t71 74t22.5 71t36 46.5q24 5 11 -59.5t-42 -137t-72 -126.5t-96 -89.5t-107 -60
t-184.5 -55.5t-380.5 -49t-409.5 -10z" />
    <glyph glyph-name="glyph241" horiz-adv-x="1359" 
d="M256 519q-40 -102 -40 -239q0 -69 21 -126.5t63.5 -99.5t99.5 -64.5t126.5 -23.5t127 12t115.5 40.5t120 70.5t114 95.5t102 122.5t96 172q24 68 41 64t4 -71t-51 -165.5t-99 -193t-131.5 -172.5t-144 -133.5t-139 -84t-138.5 -43.5t-125.5 -10t-102.5 21t-92.5 57.5
t-66 86t-38 100.5t-16.5 125.5t9 157.5q14 93 45 191q59 193 142 326q79 127 170 211t130 118q10 9 9.5 14.5t-10.5 9.5q-63 38 -157 38q-24 0 -43 -3.5t-37.5 -13t-42 -34t-46.5 -51.5q-24 -29 -40 -43q-18 -17 -26 -14q-16 5 -4 31q0 1 1 2q19 30 56 79t68 78t66 53.5
t74 37.5t116 8t121 -12t76.5 -16.5t45.5 -38.5v-5q-4 -34 -50 -83q-44 -48 -138 -125q-59 -48 -125.5 -104t-116.5 -117q-77 -96 -139 -236z" />
    <glyph glyph-name="glyph242" horiz-adv-x="591" 
d="M301 896q22 -6 70.5 -45t80 -101.5t35.5 -131t-15 -134t-45 -116t-53 -94.5t-67 -90q-38 -40 -60 -45t-72 -19t-121.5 -36t-87 -27t-23 3.5t8 27.5t97.5 74t175 120t135 101q-36 147 -178 205q-15 4 -20 8.5t-3 21.5q19 62 88 261q8 13 20.5 18t34.5 -1z" />
    <glyph glyph-name="glyph243" horiz-adv-x="649" 
d="M544.5 865.5q-4.5 -39.5 -6.5 -52.5t-9 -52.5t-13 -74.5t-13.5 -66.5t-24 -97.5t-38.5 -132.5t-57.5 -129t-60 -95t-81.5 -46.5q-66 -15 -119.5 -28.5t-115.5 -29.5t-70.5 -19.5t-11.5 -3.5q-11 0 -23 20q3 15 24 33.5t68.5 52t139.5 97.5t228 179q4 5 15 31t32.5 106
t39.5 159t24.5 105t16.5 54.5t35 29t20.5 -39z" />
    <glyph glyph-name="glyph244" horiz-adv-x="1758" 
d="M1016 165q-26 -56 -71 -124.5t-128 -158.5l-23 -21q-77 -67 -124 -90q-39 -23 -81 -36q-63 -21 -112 -21h-39q-140 0 -247 108q-91 102 -91 290q0 154 66 323t141 275l4 5h6q10 0 12 -14v-4q0 -30 -48 -138q-27 -68 -44 -121q-27 -90 -28.5 -138t8 -96t36.5 -88t64 -69.5
t90.5 -49t118.5 -19.5t114 12q67 17 127 56q103 68 157.5 143.5t79 130t39.5 108.5q11 49 11 169q2 117 -2 217q-12 66 23 117t41 51q11 0 29 -26q21 -14 62.5 -9.5t84 29t85.5 74.5t61 60q22 13 37 13q4 0 12 -4l17 -9q9 -4 18 -7.5t15 -3.5q21 0 37 16t26.5 36t20.5 41.5
t22 22.5t13.5 -14t-6.5 -39t-22 -52.5t-29 -53.5t-28 -43t-39 -39t-62.5 -15t-47 10t-15.5 4q-11 0 -22 -10.5t-49 -53.5t-84 -78.5t-70 -55.5q-18 -79 -34.5 -170.5t-34.5 -158.5q-52 -193 -97 -281z" />
    <glyph glyph-name="glyph245" horiz-adv-x="1904" 
d="M1316 940q73 2 214 48t200 133q1 44 -39.5 69.5t-97 14.5t-112.5 -68t-165 -197zM1416.5 709q-83.5 -27 -137 -34.5t-114.5 -13.5q-89 -378 -149 -496q-26 -56 -71 -124.5t-128 -158.5l-23 -21q-77 -67 -124 -90q-39 -23 -81 -36q-63 -21 -112 -21h-39q-140 0 -247 108
q-91 102 -91 290q0 154 66 323t141 275l4 5h6q10 0 12 -14v-4q0 -30 -48 -138q-27 -68 -44 -121q-27 -90 -28.5 -138t8 -96t36.5 -88t64 -69.5t90.5 -49t118.5 -19.5t114 12q67 17 127 56q103 68 157.5 143.5t79 130t39.5 108.5q11 49 7 156.5t-11 250.5q38 127 87 163
q8 6 13 3.5t9 -10.5q8 -18 27 -33q27 -21 72 -19q38 40 125 151t161 181t146 78q63 0 94 -33t29 -79t-12.5 -85.5t-22 -71t-34.5 -78.5t-63.5 -102t-105 -109.5t-148 -81.5z" />
    <glyph glyph-name="glyph246" horiz-adv-x="960" 
d="M300 180.5q-22 -37.5 -15 -35.5q42 16 149 71.5t183 101.5t110 94q8 11 13 21q-5 77 -76 86.5t-117.5 -18t-86 -71.5t-89 -128t-71.5 -121.5zM462 542q13 14 41 40t59 52t82.5 52.5t119 15t85.5 -82.5q3 -12 3 -25q8 -67 -43 -166q-30 -59 -91 -150.5t-111.5 -133
t-88.5 -54t-179 -59t-209 -57.5q-74 -24 -87 -14.5t-6.5 23t30.5 31t59 41.5t86 65q33 50 59 101t39 81t28 77t23 137t9 161.5t1 143.5v220q16 69 53 200q32 99 44 134q4 16 12 16t8 -13q4 -31 0 -123q2 -402 0 -509q-4 -85 -8 -115t-18 -89z" />
    <glyph glyph-name="glyph247" horiz-adv-x="1357" 
d="M543 1363q54 43 115 41.5t96 -39t34.5 -65.5t-25 -50.5t-64.5 -9t-100.5 17t-100.5 -43t-14.5 -90t65.5 -56t66 -10t67.5 21t104.5 60.5q107 76 140.5 82.5t18 -22t-38.5 -52t-57 -52t-204 -156.5q-91 -69 -163 -136t-138 -154q-131 -162 -131 -370q0 -69 21 -126.5
t63.5 -99.5t99.5 -64.5t126.5 -23.5t132 15t119.5 45t120.5 75t117 103.5t102.5 135t85 153.5q22 54 39 50t4 -71t-51 -165.5t-88.5 -181t-123.5 -167.5t-169.5 -153t-155.5 -91t-123.5 -36t-123 -7t-108 26.5t-84 49t-60.5 74.5t-41.5 111.5t-15.5 154.5q0 284 185 615
q56 96 80 118q-106 45 -115 150q0 9 79 107q61 76 110.5 159.5t103.5 126.5z" />
    <glyph glyph-name="glyph248" horiz-adv-x="1870" 
d="M1671 526q7 33 -2 43.5t-37 34.5q-3 0 -9 -2t-9 -7t-11 -11.5t-10 -7.5q-14 -7 -39 -7q-29 0 -55.5 11t-47 29.5t-32.5 43.5t-12 53q0 12 9 43.5t21 67t23.5 68.5t16.5 49q40 90 112 90q20 -5 47.5 -25t46 -46.5t45.5 -78t36 -158.5q6 -77 -9 -138q-13 -59 -39 -124
q-18 -45 -39.5 -76.5t-60.5 -71.5t-98.5 -77t-172 -70.5t-293 -63t-361 -33.5t-278 1t-161.5 24q-81 25 -117 73q-28 49 -31 110q-4 84 60 306q17 59 36 58t14.5 -35t-6.5 -60q-7 -82 31 -126q24 -31 76.5 -53t133 -30.5t223 -11t345.5 16t340.5 49.5t216.5 70t97 72z
M933 808q-50 -61 -70.5 -72.5t-38.5 -9.5q-91 53 -138 141q-6 17 34 63.5t84.5 101.5t64.5 23q60 -80 117 -123q12 -9 13.5 -20.5t-8.5 -27.5q-23 -35 -58 -76z" />
    <glyph glyph-name="glyph249" horiz-adv-x="1231" 
d="M927 1571q33 -6 128 -93q13 -20 13 -30v-9q-11 -68 -128 -176q-14 -6 -23 -6q-20 0 -127 80l-15 6q-16 0 -127 -127q-8 -8 -22 -14q-30 0 -135 92l-9 12v6q4 42 114 185q22 20 32 20h3q19 0 118 -92q18 -14 26 -14h6q58 56 108 135q20 25 38 25zM943.5 230.5
q44.5 61.5 68.5 119.5t35 106t1 132q-19 97 -66 108q-31 -23 -75 -21q-20 3 -40 15.5t-35.5 30.5t-25 38.5t-9.5 40.5q0 12 5 31t11.5 38.5t12.5 35.5t8 22q14 51 28 86q31 70 78.5 73.5t76 -23t43.5 -51.5t37 -82q34 -87 34 -192v-66.5t-6 -107.5t-37.5 -187t-71.5 -197
q-26 -56 -71 -124.5t-128 -158.5l-23 -21q-77 -67 -124 -90q-39 -23 -81 -36q-63 -21 -112 -21h-39q-140 0 -247 108q-91 102 -91 290q0 154 66 323t141 275l4 5h6q10 0 12 -14v-4q0 -30 -48 -138q-27 -68 -44 -121q-27 -90 -28.5 -138t8 -96t36.5 -88t64 -69.5t90.5 -49
t118.5 -19.5t114 12q67 17 127 56q54 36 95 73q37 35 81.5 96.5z" />
    <glyph glyph-name="glyph250" horiz-adv-x="1398" 
d="M1196 533q-51 -128 -123 -228.5t-185.5 -159.5t-300.5 -81t-275 -11t-129 40t-62 69t-21 90q0 27 5.5 56t15 63.5t22.5 76t27 92.5l13 56q35 77 49 22q-21 -116 -21 -129q0 -35 13.5 -72.5t48 -60t127.5 -33t273 7.5t256.5 47.5t126.5 71.5t65 87t17 121q5 196 4 594
q25 122 44.5 187t53.5 139.5t86 149.5q61 80 443 365q325 265 327 265t2 -1v-1q0 -3 -39.5 -83t-76.5 -123t-56 -62q-302 -257 -428 -353t-158 -120t-48.5 -43.5t-21 -48.5t-6.5 -87v-93h1q0 -9 -1 -18q1 -136 0 -506q-11 -164 -68 -286z" />
    <glyph glyph-name="glyph251" horiz-adv-x="1398" 
d="M1651.5 2131q-86.5 -65 -139.5 -106t-147 -116t-73 -31t57.5 88t76 84t106 92t140 104t137 102t119.5 110.5t20.5 -18t-123 -161.5t-174 -148zM1196 533q-51 -128 -123 -228.5t-185.5 -159.5t-300.5 -81t-275 -11t-129 40t-62 69t-21 90q0 27 5.5 56t15 63.5t22.5 76
t27 92.5l13 56q35 77 49 22q-21 -116 -21 -129q0 -35 13.5 -72.5t48 -60t127.5 -33t273 7.5t256.5 47.5t126.5 71.5t65 87t17 121q5 196 4 594q25 122 44.5 187t53.5 139.5t86 149.5q61 80 443 365q325 265 327 265t2 -1v-1q0 -3 -39.5 -83t-76.5 -123t-56 -62
q-302 -257 -428 -353t-158 -120t-48.5 -43.5t-21 -48.5t-6.5 -87v-93h1q0 -9 -1 -18q1 -136 0 -506q-11 -164 -68 -286z" />
    <glyph glyph-name="glyph252" horiz-adv-x="1326" 
d="M662 4q27 8 53 20q115 53 182.5 118t95.5 103.5t48.5 75t36.5 83.5q12 36 19 117.5t6.5 236.5t-5 343.5t-1 225.5t9 84.5t44.5 191.5t43.5 162.5t9 25t10.5 10t9 -6t-3.5 -47.5t-7.5 -222.5t2.5 -325.5t1.5 -279.5t-12 -251.5t-31 -185.5t-53 -164.5t-82 -187
t-133 -191.5t-154.5 -146t-170 -75t-205.5 -6t-181.5 108t-84 210.5t15.5 231q24 111 61 201.5t57 127.5q33 61 84 141l4 5h6q10 0 12 -14v-4q0 -30 -61 -160q-39 -99 -45 -118q-25 -86 -25 -144q0 -95 27.5 -151.5t65.5 -87.5t71.5 -46t80 -22.5t94.5 -4.5q55 4 105 19z
" />
    <glyph glyph-name="glyph253" horiz-adv-x="1101" 
d="M936 1190q65 -44 65 -98q0 -8 -1 -12q-17 -78 -55 -137q-25 -38 -54.5 -64t-60.5 -45.5t-82 -37.5q-75 -27 -115 -36.5t-106.5 -27t-137.5 -50.5q-69 -42 -113 -94.5t-63 -131t-28 -181t-9 -242.5v-538q0 -3 -3.5 -29t-7.5 -72.5t-11 -87t-13.5 -70t-21.5 -46.5l-19 410
v407q0 119 11.5 217t41 190t67.5 180q18 42 51 93q34 55 87 115t87.5 88t75 52.5t104.5 44.5q88 179 147 267q9 14 35 7q51 -18 129 -71z" />
    <glyph glyph-name="glyph254" horiz-adv-x="1332" 
d="M323 727q18 11 21.5 -15.5t-46 -139t-65 -165t-15.5 -110.5q0 -156 91 -242q40 -28 82 -45q33 -14 66 -22v1q143 -18 265.5 36.5t201.5 136t121.5 167t46 130t-1 112t-8.5 236.5q3 28 6 37q103 302 114 318q11 17 18 15q12 -4 5 -30.5t-10.5 -64t-2.5 -225.5t-7 -228
q-19 -157 -99 -360t-182 -314.5t-173.5 -161t-170 -75t-205.5 -6t-184.5 114t-84 210.5t18.5 225q24 111 56.5 193.5t78 171.5t63.5 100z" />
    <glyph glyph-name="glyph255" horiz-adv-x="661" 
d="M485 362q-4 -11 -54 -98.5t-101 -114.5q-3 -3 -29 -11.5t-64 -20.5t-81.5 -25.5t-80.5 -24.5t-71 -17.5t-37 6t26.5 36t66.5 48t122.5 84t215.5 149.5q7 4 15.5 16.5t18.5 21t-6 38.5q-3 0 -10.5 -2.5t-29 -11t-50.5 -5.5t-57 18t-52 43.5t-30 55.5t-6 58q0 27 55 146
q44 120 70.5 150t74.5 33q35 0 66 -24.5t54 -66.5t36.5 -97t13.5 -115q0 -120 -76 -269z" />
    <glyph glyph-name="glyph256" horiz-adv-x="645" 
d="M503.5 434.5q-30.5 -85.5 -60.5 -130t-54.5 -69t-49 -44.5t-54.5 -33t-49 -13q-136 0 -136 142q0 42 8.5 81.5t19 80t33 108t49.5 173.5q19 66 36 103t68 46q53 -5 95.5 -26t72.5 -53t46.5 -81t11 -124t-36 -160.5zM388 523.5q-44 33.5 -90.5 48t-67.5 5.5
q-17 -26 -30.5 -58.5t-22 -72.5t-1 -67.5t31.5 -48.5t77 -19t100 43.5t52 73.5q-5 62 -49 95.5z" />
    <glyph glyph-name="glyph257" horiz-adv-x="998" 
d="M535 514q-23 35 -68.5 43.5t-127.5 -121t-138 -206.5q96 44 171.5 84t124.5 85t55 62.5t-17 52.5zM651.5 461.5q-35.5 -14.5 -64.5 -56t-106 -148.5q157 46 254 102q26 15 34 24t1 38t-45 42t-73.5 -1.5zM683 586q49 24 94.5 23.5t67 -10t33 -27.5t16 -48.5t-8.5 -56.5
t-35.5 -59.5t-53.5 -70.5t-66.5 -71t-73.5 -60.5t-77 -37.5q-11 0 -25 -3l-45 -10q-30 -6 -79 -15t-129 -21.5t-162 -23t-124 -20t-46.5 5t7 30t62.5 45.5t69 47t31 35t48.5 68.5t62.5 90t64.5 98.5t70 103t66 76t54.5 49.5t38 18.5q100 5 125 -133q0 -22 16 -23z" />
    <glyph glyph-name="glyph258" horiz-adv-x="1400" 
d="M812 -41q-73 -87 -157.5 -146.5t-146.5 -75t-94 -15.5q-80 0 -136.5 35.5t-92.5 85.5t-56 114.5t-24.5 131t0 126.5t19 130.5t27 116t27 88t48 133t63 154t37 80.5t16.5 32t20.5 11.5t8 -31t-12 -54t-27.5 -82.5t-58 -169.5t-52.5 -185t-13.5 -125.5t21.5 -114.5
t62.5 -104.5t87 -66.5t103 -22.5q87 0 177.5 46t177.5 134q70 73 104.5 135.5t36.5 98.5q0 36 -36 44h-10q-18 0 -40.5 0.5t-46.5 8t-48.5 26t-47.5 55.5q-34 53 -27 130.5t17.5 134.5t38.5 123t75.5 143t107 145.5t127.5 122.5q105 87 166 90q47 0 47 -51q0 -84 -50 -226
q-6 -20 -17.5 -35.5t-26.5 -15.5q-17 1 -25 18t-11 19q-9 14 -25 13h-4q-83 -19 -182.5 -108.5t-118 -132t-18 -49.5t0.5 -17q0 -16 7.5 -33t22 -31.5t36 -24t50.5 -9.5h14q5 1 10 1h10q20 0 35 -9t35 -65t19.5 -142.5t-32 -191t-88.5 -208.5q-40 -72 -87 -133
q-21 -27 -43 -52z" />
    <glyph glyph-name="glyph259" horiz-adv-x="2283" 
d="M697 760q50 12 104.5 34t95 77t74.5 146.5t53 87.5t19 -9q0 -6 -14.5 -76t-67.5 -177t-128.5 -163.5t-166 -75t-151.5 -30.5q-92 -18 -126 -39t-42 -42.5t9 -44.5q13 -14 34 -24q89 -43 391 -43t650 23t496.5 42.5t198 20t57.5 -8.5v-3q0 -32 -196 -129
q-127 -46 -218 -76q-302 -70 -628.5 -100.5t-529.5 -30.5q-332 0 -458 82q-38 26 -49 52q-4 10 -4 17v8q1 32 60 111q30 38 96 107q35 36 113 123q31 24 48 39q41 35 62.5 45t43.5 18q19 6 71.5 16.5t102.5 22.5z" />
    <glyph glyph-name="glyph260" horiz-adv-x="767" 
d="M649.5 1441.5q17.5 18.5 10.5 -135.5q2 -622 -0.5 -673.5t-9 -96t-22.5 -98.5t-48.5 -119.5t-76.5 -124.5t-105.5 -121t-100.5 -84t-57 -22q-175 84 -201 164q-19 50 50 54q14 0 33 -1q44 66 55.5 96t20.5 69q26 115 22 361v213q107 362 119.5 361.5t12 -29t-6 -89
t-9.5 -316.5v-299q-9 -58 -18 -99t-38.5 -103.5t-70 -117t-25.5 -54.5q23 0 45 2.5t53 9t66.5 17t88.5 43.5t79.5 86.5t26.5 316.5v440q16 69 52.5 200t54 149.5z" />
    <glyph glyph-name="glyph261" horiz-adv-x="388" 
d="M206 1095q109 258 112 258h2q3 0 5 -13q-39 -461 -43 -615.5t2 -201.5q5 -52 22.5 -92t53 -69.5t81 -43.5t53.5 -12q13 -82 -7 -143t-60.5 -88.5t-77.5 -24.5q-26 5 -51 16.5t-58 50.5t-51.5 121t-14.5 230t32 627z" />
    <glyph glyph-name="glyph262" horiz-adv-x="1972" 
d="M1695 547q166 22 297 97q45 -51 11 -86.5t-63.5 -67t-70 -53.5t-64 -16.5t-137.5 27.5q-64 -96 -160 -149.5t-202.5 -85.5t-276.5 -59t-335 -33h-3q-180 -4 -277.5 1t-161.5 24q-81 25 -117 73q-28 49 -31 110q-4 84 60 306q17 59 36 58t14.5 -35t-6.5 -60
q-7 -82 31 -126q24 -31 76.5 -53t133 -30.5t223 -11t330.5 16t362 59.5q87 21 141 40t82 39.5t46.5 46t42.5 72.5t46 53q26 -6 13 -49t-24 -71q-4 -7 -16 -37z" />
    <glyph glyph-name="glyph263" horiz-adv-x="1925" 
d="M1326 219q-113 -34 -293.5 -63.5t-338.5 -33.5h-3q-180 -4 -277.5 1t-161.5 24q-81 25 -117 73q-28 49 -31 110q-4 84 60 306q17 59 36 58t14.5 -35t-6.5 -60q-7 -82 31 -126q24 -31 76.5 -53t133 -30.5t213 -11t351 15t373 52t215 71t120 110t88.5 87.5t53 5
q28 -10 68 -22t74 24q15 17 28 23q15 6 26 -2q20 -15 6 -47q-10 -21 -33 -51q-14 -18 -32 -38q-50 -57 -70.5 -66.5t-35 -13t-31.5 2.5q-91 15 -113 14.5t-46.5 -40.5t-43.5 -71t-73.5 -82t-126 -82t-133.5 -49z" />
    <glyph glyph-name="glyph264" horiz-adv-x="523" 
d="M516 1232q-64 -30 -117.5 -69.5t-59.5 -52.5q122 18 198 18q158 0 168 -43q-19 -60 -75.5 -121t-111 -105.5t-112 -103t-91.5 -110.5t-62 -117q-24 -49 -40.5 -111.5t-16.5 -142.5q0 -69 21 -126.5t63.5 -99.5t99.5 -64.5t126.5 -23.5t127 12t115.5 40.5t120 70.5
t114 95.5t102 122.5t96 172q24 68 41 64t4 -71t-51 -165.5t-99 -193t-131.5 -172.5t-144 -133.5t-139 -84t-138.5 -43.5t-125.5 -10t-102.5 21t-92.5 57.5t-66 86t-38 100.5t-16.5 125.5t9 157.5q14 93 45 191q32 97 68 171t91.5 152.5t107 132t113.5 114.5q0 21 -56 21
q-19 0 -73 -0.5t-88 -2.5q-25 -2 -60 -3q-15 -1 -17 13.5t10 38.5q62 99 110.5 158.5t112.5 104.5t86 4q18 -36 -13 -65q-5 -5 -12 -10z" />
    <glyph glyph-name="glyph265" horiz-adv-x="560" 
d="M399 132q-17 20 -31 51q-13 29 -22 69q-2 9 -5.5 9.5t-8.5 -8.5q-11 -27 -37 -67q-1 -2 -2 -3q-33 -49 -50 -71t-34.5 -33t-83.5 -23.5t-107.5 -20.5t-65 -13t-20.5 10.5t130 106.5q34 30 121.5 100.5t120 111t57 85t57.5 132t51 124.5t35.5 31.5t-6 -90t-22.5 -132.5
q0 -44 15.5 -82.5t38.5 -56.5q35 -30 80.5 -44t53.5 -12q13 -82 -7 -143t-60.5 -88.5t-77.5 -24.5q-26 5 -51 16.5t-58 50.5q-6 7 -11 15z" />
    <glyph glyph-name="glyph266" horiz-adv-x="693" 
d="M750 719q-38 -77 -56 -103q-30 -41 -53.5 -63.5t-45 -34t-136.5 -69.5q-98 -231 -148 -283q-36 -44 -146 -56l-211 -63h-10q-11 0 -15 8v8q0 27 114.5 107t316.5 242q6 9 37 76q23 51 42.5 98.5t58 85t92.5 64t84 37.5q22 8 51 34l56 -47q-18 -23 -31 -41z" />
    <glyph glyph-name="glyph267" horiz-adv-x="1630" 
d="M1265.5 820q-13.5 -6 -24.5 -13.5t-36 -23.5q-10 -9 -25 -60q-10 -34 -30 -133q-74 -310 -134 -428q-26 -56 -71 -124.5t-128 -158.5l-23 -21q-77 -67 -124 -90q-39 -23 -81 -36q-63 -21 -112 -21h-39q-140 0 -247 108q-91 102 -91 290q0 154 66 323t141 275l4 5h6
q10 0 12 -14v-4q0 -30 -48 -138q-27 -68 -44 -121q-27 -90 -28.5 -138t8 -96t36.5 -88t64 -69.5t90.5 -49t118.5 -19.5t114 12q67 17 127 56q103 68 157.5 143.5t79 130t39.5 108.5q11 49 11 169v106q0 28 -2 111q-12 66 23 117t41 51q11 0 29 -26q15 -10 35.5 -11t36.5 -1
q31 5 44.5 16.5t34.5 38.5q28 45 50 51t22 -13q0 -40 28.5 -41.5t59.5 19.5t43 47.5t22.5 35.5t21.5 11t13 -10t11.5 -26t30.5 -2t33 19.5t22 5t23 -20t15 -30.5t-31.5 -44t-74.5 -55.5t-96.5 -46t-105.5 -40.5t-77 -24.5t-40.5 -11.5z" />
    <glyph glyph-name="glyph268" horiz-adv-x="1965" 
d="M1687 1375q76 0 108 -70q9 -22 9 -47q0 -126 -128 -354q7 -6 11 -6q65 5 221 128q56 52 67 52q44 -60 44 -70q-172 -157 -250 -186q-110 -61 -253 -96q-222 -46 -349 -46q-116 -494 -201 -587q-26 -61 -160 -204q-174 -157 -316 -157h-64q-160 0 -277 163
q-49 100 -49 218v35q0 228 186 552l26 35h9q4 0 9 -9v-11q0 -25 -85 -242q-35 -98 -35 -165q0 -205 172 -279q76 -32 145 -32q290 0 471 328q53 107 53 212q0 83 -21 317q31 86 105 163h6q44 -58 87 -58h20q13 10 192 241q148 175 247 175zM1321 962h9q93 0 291 81
q66 38 107 96v12q0 60 -105 75q-108 0 -270 -226q-7 -3 -32 -38z" />
    <glyph glyph-name="glyph269" horiz-adv-x="998" 
d="M296 168.5q71 32.5 198.5 107t188.5 152.5q2 43 -34 70.5t-78 30.5t-91.5 -20t-72.5 -50.5t-55 -81.5t-67.5 -119t-52.5 -97q-7 -13 -7 -19t71 26.5zM709 241q41 12 87 30t204 113q26 -22 42.5 -43.5t-22.5 -57t-134.5 -90t-230 -100.5t-205.5 -53t-129.5 -25t-132.5 -37
t-205 -51q-19 0 -19 16q0 24 43 58.5t80.5 63t48 37.5t31.5 45t50 102q12 28 28.5 72.5t26.5 92.5q11 54 19.5 126.5t11.5 270.5v170q17 69 56 200q34 99 47 134q4 16 12.5 16t8.5 -13q4 -31 0 -123q2 -402 -1 -490q-9 -84 -15.5 -115t8 -14.5t40 41t39.5 36.5t28 22
q65 46 132 46q22 0 44 -7.5t40 -22.5t29 -37t9.5 -78t-33 -141t-79.5 -194q0 -12 41 0z" />
    <glyph glyph-name="glyph270" horiz-adv-x="921" 
d="M905.5 1040q9.5 -17 8.5 -37q-7 -19 -40 -41q-118 -100 -166 -116t-73 -13.5t-55.5 17t-41 16t-113 -96.5t-169.5 -250q-40 -102 -40 -239q0 -69 21 -126.5t63.5 -99.5t99.5 -64.5t126.5 -23.5t127 12t115.5 40.5t120 70.5t114 95.5t102 122.5t96 172q24 68 41 64t4 -71
t-51 -165.5t-99 -193t-131.5 -172.5t-144 -133.5t-139 -84t-138.5 -43.5t-125.5 -10t-102.5 21t-92.5 57.5t-66 86t-38 100.5t-16.5 125.5t9 157.5q14 93 45 191q59 193 141.5 326t162.5 213q1 3 1 6q6 22 -16 59t-67 41.5t-65.5 -0.5t-35.5 -9q-12 0 -12 13q0 38 38 81
q19 20 29 28q29 23 51 33q99 52 190 52q79 0 117 -34q26 -25 26 -68q0 -27 -22 -73q-9 -17 -28 -44q-5 -9 -13 -23q0 -7 21 -18q7 -5 20 -5q35 -10 89 23t67 46q9 8 27.5 4.5t28 -20.5z" />
    <glyph glyph-name="glyph271" horiz-adv-x="2107" 
d="M1696 700q-64 1 -115.5 -49t-51 -72t7 -49t24 -49.5t30.5 -22.5q0 -1 8 -1h1q60 13 112.5 45t80.5 63q15 16 15 29q7 35 -20.5 70t-91.5 36zM1575 262q-36 -28 -149.5 -74t-320 -80.5t-396.5 -42t-289.5 -2.5t-164.5 24q-83 25 -119 73q-29 49 -32 110q-4 84 61 306
q18 59 37 58t14.5 -35t-6.5 -60q-7 -82 32 -126q24 -31 77.5 -53t135.5 -30.5t227.5 -11t335.5 14t294.5 37.5t116.5 27q0 9 2 37.5t28 112.5q14 40 38.5 85.5t45 76.5t58.5 70q49 47 86 63q40 20 70 20h4q20 0 46 -13q38 -21 57 -72q11 -34 11 -66v-34q0 -46 -31 -124
q-20 -57 -36.5 -90.5t-7.5 -32.5q37 4 101 30q60 27 100.5 53t77.5 49q27 4 44 -19t-3 -55q-23 -31 -75 -73.5t-145.5 -79.5t-175 -58t-149.5 -15zM1059 766q-50 -61 -70.5 -72.5t-38.5 -9.5q-91 53 -138 141q-6 17 34 63.5t84.5 101.5t64.5 23q60 -80 117 -123
q12 -9 13.5 -20.5t-8.5 -27.5q-23 -35 -58 -76z" />
    <glyph glyph-name="glyph272" horiz-adv-x="1226" 
d="M745 1445q33 -6 128 -93q13 -20 13 -30v-9q-11 -68 -128 -176q-14 -6 -23 -6q-20 0 -127 80l-15 6q-16 0 -127 -127q-8 -8 -22 -14q-30 0 -135 92l-9 12v6q4 42 114 185q22 20 32 20h3q19 0 118 -92q18 -14 26 -14h6q58 56 108 135q20 25 38 25zM1086.5 1009.5
q23.5 -21.5 37 -41t26.5 -55.5t51 -23t44 15.5t13.5 2t19 -29.5t2.5 -39.5t-60.5 -78t-55 -96.5t-19 -118.5t-54.5 -200t-75 -180.5q-26 -56 -71 -124.5t-128 -158.5l-23 -21q-77 -67 -124 -90q-39 -23 -81 -36q-63 -21 -112 -21h-39q-140 0 -247 108q-91 102 -91 290
q0 154 66 323t141 275l4 5h6q10 0 12 -14v-4q0 -30 -48 -138q-27 -68 -44 -121q-27 -90 -28.5 -138t8 -96t36.5 -88t64 -69.5t90.5 -49t118.5 -19.5t114 12q67 17 127 56q103 68 158.5 137t79.5 123.5t41.5 114.5t15.5 113.5t-16 83t-28 27.5q-27 -10 -49 -9t-41 10t-35 24
t-28 33.5t-12 40.5q0 17 4 33q35 90 48.5 134t28.5 72t40 42.5t57 10t55.5 -26z" />
    <glyph glyph-name="glyph273" horiz-adv-x="1282" 
d="M732 1445q33 -6 128 -93q13 -20 13 -30v-9q-11 -68 -128 -176q-14 -6 -23 -6q-20 0 -127 80l-15 6q-16 0 -127 -127q-8 -8 -22 -14q-30 0 -135 92l-9 12v6q4 42 114 185q22 20 32 20h3q19 0 118 -92q18 -14 26 -14h6q58 56 108 135q20 25 38 25zM1253 849
q8 -11 8.5 -46.5t-18.5 -48.5t-44.5 -28t-37.5 -32q-8 -52 -16 -98q-18 -124 -55.5 -241t-73.5 -187q-26 -56 -71 -124.5t-128 -158.5l-23 -21q-77 -67 -124 -90q-39 -23 -81 -36q-63 -21 -112 -21h-39q-140 0 -247 108q-91 102 -91 290q0 154 66 323t141 275l4 5h6
q10 0 12 -14v-4q0 -30 -48 -138q-27 -68 -44 -121q-27 -90 -28.5 -138t8 -96t36.5 -88t64 -69.5t90.5 -49t118.5 -19.5t114 12q67 17 127 56q103 68 158.5 137t79.5 123.5t40 107.5t19.5 114.5t-10.5 91t-28 27.5q-35 -12 -57 -11t-41 10t-35 24t-28 33.5t-12 40.5
q0 17 4 33q24 64 43.5 107.5t34 85t33.5 54t53 13.5t59.5 -21t42 -46t27 -56.5t14.5 -62.5q13 -23 47 -9.5t42 4.5z" />
    <glyph glyph-name="glyph274" horiz-adv-x="1712" 
d="M2552 2083q2 0 2 -1v-1q0 -3 -37 -77.5t-79.5 -124.5t-61.5 -69q-323 -259 -433 -347t-142 -112t-54.5 -48t-26.5 -43q-1 -4 -19 -96t-46 -265t-31 -249v-13q-3 -67 3 -114q5 -52 22.5 -92t43 -69.5t71 -43.5t53.5 -12q13 -82 -7 -143t-60.5 -88.5t-77.5 -24.5
q-26 5 -51.5 19t-53.5 52.5t-45 114.5t-10 192t12 177q-109 -228 -215 -312t-201 -122t-199 -65t-241 -40t-234.5 -11.5t-162.5 18.5q-82 22 -124 66t-44.5 119.5t58.5 295.5q15 59 34 59t15.5 -34.5t-12.5 -82t27.5 -88.5t94.5 -60.5t139 -25.5q65 -5 170.5 -3t285 33.5
t316.5 100t194 142.5t83 153q26 81 64 220q6 36 33.5 106.5t81.5 189.5q48 125 96 188q61 80 344 292.5t353 275.5t72 63z" />
    <glyph glyph-name="glyph275" horiz-adv-x="1712" 
d="M1786 1620q-9 6 17.5 50.5t39.5 56.5q104 92 221 176.5t178.5 132.5t87.5 72q17 19 22.5 19.5t3.5 -10.5t-22 -54.5t-82.5 -97.5t-184 -143t-197 -145t-84.5 -57zM2552 2083q2 0 2 -1v-1q0 -3 -37 -77.5t-79.5 -124.5t-61.5 -69q-323 -259 -433 -347t-142 -112t-54.5 -48
t-26.5 -43q-1 -4 -19 -96t-46 -265t-31 -249v-13q-3 -67 3 -114q5 -52 22.5 -92t43 -69.5t71 -43.5t53.5 -12q13 -82 -7 -143t-60.5 -88.5t-77.5 -24.5q-26 5 -51.5 19t-53.5 52.5t-45 114.5t-10 192t12 177q-109 -228 -215 -312t-201 -122t-199 -65t-241 -40t-234.5 -11.5
t-162.5 18.5q-82 22 -124 66t-44.5 119.5t58.5 295.5q15 59 34 59t15.5 -34.5t-12.5 -82t27.5 -88.5t94.5 -60.5t139 -25.5q65 -5 170.5 -3t285 33.5t316.5 100t194 142.5t83 153q26 81 64 220q6 36 33.5 106.5t81.5 189.5q48 125 96 188q61 80 344 292.5t353 275.5t72 63z
" />
    <glyph glyph-name="glyph276" horiz-adv-x="1287" 
d="M1256.5 829.5q-17.5 -0.5 -57.5 9.5q-21 -267 -66 -440t-95 -268t-133 -191.5t-154.5 -146t-170 -75t-205.5 -6t-184.5 114t-84 210.5t18.5 225q24 111 61 201.5t57 127.5q50 91 88 149l4 5h6q10 0 12 -14v-4q0 -30 -65 -168q-39 -99 -45 -118q-25 -86 -25 -144
q0 -156 91 -242q40 -28 82 -45q33 -14 66 -22v1q143 -18 258 35t225 162q28 29 76 107t54 153q12 36 14.5 113t-5.5 939q0 76 17 141q39 114 66 208.5t42 94.5h2q7 -2 10 -2q1 -1 1 -2l-12 -142q-5 -35 -11 -112q-5 -75 -5 -290q0 -149 25 -199q10 -22 24 -39q5 -5 25.5 -21
t55.5 -30q14 -5 30 -9v-1q34 -10 41 -8q13 -82 -6 -140.5t-45.5 -82t-45.5 -29t-36.5 -6z" />
    <glyph glyph-name="glyph277" horiz-adv-x="861" 
d="M836 1087l100 -46q65 -44 65 -98q0 -8 -1 -12q-17 -78 -55 -137q-25 -38 -54.5 -64t-60.5 -45.5t-82 -37.5q-75 -27 -115 -36.5t-106.5 -27t-137.5 -50.5q-69 -42 -113 -94.5t-63 -131t-28 -181t-9 -222.5v-448q0 -3 -3.5 -29t-7.5 -72.5t-11 -87t-13.5 -70t-21.5 -46.5
l-19 410v317q0 99 11.5 197t41 190t67.5 180q18 42 51 93q34 55 87 115t87.5 88t75 52.5t104.5 44.5q138 245 180.5 298.5t45.5 53.5q46 45 60.5 7.5t-4.5 -62t-71 -48.5z" />
    <glyph glyph-name="glyph278" horiz-adv-x="1309" 
d="M767 66q103 68 157.5 143.5t79 130t39.5 108.5q11 49 11 169v106q0 28 -2 111q-12 66 23 117t41 51q11 0 29 -26q21 -14 65.5 -16.5t74.5 13.5t41 20t36.5 -12t9 -47t-64 -70.5t-106.5 -68.5q-10 -9 -25 -60q-10 -34 -26 -122q-74 -310 -134 -428q-26 -56 -71 -124.5
t-128 -158.5l-23 -21q-77 -67 -124 -90q-39 -23 -81 -36q-63 -21 -112 -21h-39q-140 0 -247 108q-91 102 -91 290q0 154 66 323t141 275l4 5h6q10 0 12 -14v-4q0 -30 -48 -138q-27 -68 -44 -121q-27 -90 -28.5 -138t8 -96t36.5 -88t64 -69.5t90.5 -49t118.5 -19.5t114 12
q67 17 127 56z" />
    <glyph glyph-name="glyph279" horiz-adv-x="553" 
d="M384 855q11 0 42 -15q21 -12 45 -47q19 -31 23 -48q7 -10 22 -26q16 0 63 69q10 13 11 13l88 -20v-1q0 -2 -45 -71t-145 -286q-58 -117 -138 -246q-46 -60 -86 -72q-112 -39 -228 -73q-50 -16 -68 -16h-8q-15 2 -15 10v1q0 20 105 89l290 208q29 17 34 31v2q0 13 -5 30
l-47 -11q-10 -2 -12 -2q-40 0 -86 28q-37 35 -43 48q-22 33 -22 82q0 40 14 62q14 31 61 111q26 54 57 102q34 48 93 48z" />
    <glyph glyph-name="glyph280" horiz-adv-x="572" 
d="M340 410q-14 16 -20 14q-10 -7 -32 -5q-29 3 -53.5 16t-48 35.5t-27.5 60t21 89t41 88l32 73t36 51.5t41 17t54.5 -10.5t58 -46.5t31.5 -56.5t15 -73.5q7 -24 52.5 -1.5t66 31t30.5 -34.5t-17 -59.5t-71 -38.5t-58.5 -48t-112.5 -202q-87 -139 -126 -163
q-15 -13 -57.5 -25t-88.5 -21l-36 -9q-24 -6 -54 -14q-42 -16 -49 -15q-10 0 -14 8.5t6 19.5q7 7 18 17q74 63 344 249q32 38 18 54z" />
    <glyph glyph-name="glyph281" horiz-adv-x="534" 
d="M755 282q-64 -141 -128 -187t-97 -45.5t-52 8.5q-10 4 -20 9q-17 8 -39 18q-17 4 -39 2q-38 -3 -72.5 -15t-87 -42t-156.5 -138q-38 -2 -18 41t38.5 73.5t35 56.5t57 78t111 110.5t133.5 84.5q36 14 65 20q30 5 50 3q23 -3 39.5 -13t34.5 -18q12 -6 33 -12t78.5 7.5
t33.5 -41.5z" />
    <glyph glyph-name="glyph282" horiz-adv-x="854" 
d="M573 504q-14 14 -56.5 23t-133 -114.5t-152.5 -195.5q99 37 177 72t130 76t60 55t-1.5 42t-23.5 42zM624.5 365.5q-28.5 -39.5 -112.5 -141.5q160 36 260 84q28 13 36.5 21.5t3 38t-42 50.5t-76.5 4t-68.5 -56.5zM899 629q-88 -58 -95 -71q0 -3 37 -4.5t57.5 -12.5
t31 -30t12.5 -49.5t-12.5 -55.5t-39.5 -57t-58.5 -67t-71 -66.5t-77.5 -55t-79 -31.5q-11 0 -26 -2l-45 -6q-30 -4 -79.5 -9.5t-130.5 -12.5t-163.5 -12t-125 -11.5t-46 8.5t9 29.5t65.5 41t72 42t33.5 32.5t53.5 65t68.5 85.5t71 94t77 98t71 71t58 45.5t39.5 16
q100 -2 115 -142q20 27 43 56t69 71q36 1 50 -17.5t15 -42.5z" />
    <glyph glyph-name="glyph283" horiz-adv-x="924" 
d="M760.5 95.5q35.5 27.5 74.5 66.5t77.5 99.5t38.5 101.5q0 37 -36 45h-10q-18 0 -40.5 0.5t-46.5 8t-48.5 26.5t-47.5 57q-30 70 -29.5 147t34.5 172t81.5 151.5t97.5 87.5l21 16l1 -110q-66 -44 -103 -83t-38 -62.5t12 -49t27.5 -33t36 -17.5t50.5 -10h14q5 1 10 1h10
q20 0 35 -9t35 -66t19.5 -145t-39 -207.5t-72.5 -182t-111.5 -159t-184.5 -162.5t-214 -66q-80 0 -146.5 44t-103 109t-48.5 129.5t-14.5 119.5t5 130t19.5 124.5t24.5 96t27 89.5t48 135.5t63 157t37 81.5t16.5 32.5t20.5 12t8 -31.5t-12 -55t-27.5 -84t-58 -172.5
t-54.5 -213.5t5.5 -181t55.5 -126.5t89.5 -76t127 -32.5t114 14.5t78 33.5t71.5 46.5z" />
    <glyph glyph-name="glyph284" horiz-adv-x="2231" 
d="M827.5 784.5q0.5 -10.5 -0.5 -22.5t-30.5 -46t-54.5 -53.5t-43 -30.5t-57 -26q-36 -14 -127.5 -32t-126.5 -33.5t-42 -42.5t10 -50q13 -14 34 -24q89 -43 391 -43t650 23t496.5 42.5t198 20t57.5 -8.5v-3q0 -32 -196 -129q-127 -46 -218 -76q-302 -70 -628.5 -100.5
t-529.5 -30.5q-332 0 -458 82q-38 26 -49 52q-4 10 -4 17v8q1 32 60 111q30 38 96 107q35 36 101 108q31 24 48 39q41 35 62.5 45t43 17.5t80.5 23.5t80.5 22t88.5 25t67.5 8.5z" />
    <glyph glyph-name="glyph285" horiz-adv-x="692" 
d="M220 503v420q22 74 40 133q70 229 80 229q10 1 11.5 -11.5t-0.5 -24.5q-1 -27 -6 -68.5t-9 -140.5v-489q-6 -69 -23 -125t-46 -110t-58 -93t-22.5 -42.5t35.5 -1t60 9t66.5 17t83.5 42.5t79.5 84.5t41.5 172.5v587q16 69 49.5 178t50.5 159q1 2 2 3q15 21 19.5 9t2.5 -40
q-5 -48 -7 -95q-9 -363 -1.5 -473t26.5 -147q12 -25 24.5 -41t28.5 -28.5t37 -24.5t49 -22q45 -14 53 -12q13 -82 -7 -143t-60.5 -88.5t-77.5 -24.5q-29 5 -51 17q-11 5 -28 17q-15 10 -31 26q-4 3 -7 3t-9 -7q-10 -14 -32 -49q-37 -56 -81 -115t-105.5 -121t-100.5 -84
t-57 -22q-147 84 -201 164q-19 50 50 54q14 0 33 -1q44 66 53.5 92.5t23 72.5t21.5 154z" />
    <glyph glyph-name="glyph286" horiz-adv-x="2283" 
d="M686.5 596.5q-34.5 -14.5 -74.5 -25.5t-118 -27.5t-103.5 -23.5t-38.5 -28t4 -44q13 -14 34 -24q89 -43 391 -43t650 23t496.5 42.5t198 20t57.5 -8.5v-3q0 -32 -196 -129q-127 -46 -218 -76q-302 -70 -628.5 -100.5t-529.5 -30.5q-332 0 -458 82q-38 26 -49 52
q-4 10 -4 17v8q1 32 60 111q30 38 96 107q35 36 97 96q31 24 58.5 40.5t49 26.5t43 17.5t80.5 23.5t80.5 22t72.5 18.5t53 82.5q-2 115 1 196q69 233 127 350q2 0 7 5l11 -1q4 0 5 -25q-13 -57 -14 -81v-2q10 -220 -1 -293q-2 -61 -18 -103.5t-43 -93.5t-85.5 -107.5
t-93 -71z" />
    <glyph glyph-name="glyph287" horiz-adv-x="2283" 
d="M659 593q-65 -23 -150.5 -40t-120.5 -32.5t-42 -32.5t10 -40q13 -14 34 -24q89 -43 391 -43t650 23t496.5 42.5t198 20t57.5 -8.5v-3q0 -32 -196 -129q-127 -46 -218 -76q-302 -70 -628.5 -100.5t-529.5 -30.5q-332 0 -458 82q-38 26 -49 52q-4 10 -4 17v8q1 32 60 111
q30 38 96 107q35 36 101 108q47 43 94 63.5t90.5 29t117 26t141.5 57.5t102 91v2q0 7 -25 16q-27 11 -81.5 24t-96 13t-86.5 -17q-13 -5 -26.5 -16.5t-44.5 -44.5q-58 -61 -73 -61h-1q-8 0 -8 7v1q0 13 53 83q32 44 51 68t52 57t89 49q53 14 139 6.5t160 -22.5q35 -8 46 -16
t11 -22q-8 -24 -40.5 -74t-90 -117t-92 -101.5t-74.5 -62t-105 -50.5z" />
    <glyph glyph-name="glyph288" horiz-adv-x="2283" 
d="M751 680q-30 -34 -55 -53.5t-43 -30.5t-57 -26q-36 -14 -111 -29.5t-110 -31t-35.5 -27t16.5 -34.5q13 -14 34 -24q89 -43 391 -43t650 23t496.5 42.5t198 20t57.5 -8.5v-3q0 -32 -196 -129q-127 -46 -218 -76q-302 -70 -628.5 -100.5t-529.5 -30.5q-332 0 -458 82
q-38 26 -49 52q-4 10 -4 17v8q1 32 60 111q30 38 96 107q35 36 103 106q37 33 61 45.5t40 16t43 11t114 29.5t139 80t73 77.5t47 31t61.5 -27t73 -49.5t73 37.5t54 61t28 6t9.5 -22.5t27.5 -21.5t47.5 19.5t38 79.5t32.5 67t29.5 7t-2 -76t-61 -137.5t-82.5 -90.5
t-92.5 -35.5q-30 3 -41.5 -5.5t-48.5 -30.5t-72 -26t-72.5 45t-52.5 36q-31 4 -74 -49z" />
    <glyph glyph-name="glyph289" horiz-adv-x="2283" 
d="M1026 842q9 -1 17.5 -1.5t16.5 -0.5q50 0 103.5 14t100.5 36t91 60t49 64q-16 43 -68.5 59.5t-95.5 -7t-70 -55.5t-59 -72t-85 -97zM823.5 828q18.5 27 38.5 48.5t35 20.5t21.5 -14.5t20.5 -23.5t41 -14q30 36 55.5 67t62.5 81.5t96 119.5t111.5 93.5t106.5 7t66 -99.5
q-1 -73 -31 -139q-26 -63 -54 -109.5t-67.5 -90t-85.5 -78.5t-101.5 -60t-113.5 -29.5t-98.5 3.5t-66.5 28.5t-33.5 38.5t-17.5 19q-2 0 -48 -48.5t-73.5 -65.5t-79.5 -32.5t-124.5 -22.5t-107.5 -22.5t-36 -25t16 -32.5q13 -14 34 -24q89 -43 391 -43t650 23t496.5 42.5
t198 20t57.5 -8.5v-3q0 -32 -196 -129q-127 -46 -218 -76q-302 -70 -628.5 -100.5t-529.5 -30.5q-332 0 -458 82q-38 26 -49 52q-4 10 -4 17v8q1 32 60 111q39 41 99 109t119 110t100.5 56t109 23.5t107.5 23.5t75 52t53.5 65z" />
    <glyph glyph-name="glyph290" horiz-adv-x="2283" 
d="M429.5 517.5q-83.5 -19.5 -87 -33t13.5 -36.5q13 -14 34 -24q89 -43 391 -43t650 23t496.5 42.5t198 20t57.5 -8.5v-3q0 -32 -196 -129q-127 -46 -218 -76q-302 -70 -628.5 -100.5t-529.5 -30.5q-332 0 -458 82q-38 26 -49 52q-4 10 -4 17v8q1 32 60 111q30 38 96 107
q35 36 79 82.5t96.5 68t141.5 44.5q13 12 35 56q26 51 39 81t28 77t23 137t9 161.5t1 143.5v60q16 69 53 200q32 99 44 134q4 16 12 16t8 -13q4 -31 0 -123q2 -242 0 -349q-4 -85 -8 -115t-18 -89q13 14 41 40t59 52t82.5 52.5t119 15t85.5 -82.5q3 -12 3 -25
q8 -67 -43 -166q-51 -101 -122.5 -177.5t-138 -112t-137.5 -62t-153 -46t-165.5 -39zM637 704q59 18 173.5 62.5t178 89t73.5 69t15 34.5q-5 77 -76 86.5t-117.5 -18t-86 -71.5t-89 -128t-71.5 -121v-3z" />
    <glyph glyph-name="glyph291" horiz-adv-x="2283" 
d="M712 634q-68 -23 -166 -47q-123 -31 -158 -46.5t-42 -42.5t10 -50q13 -14 34 -24q89 -43 391 -43t650 23t496.5 42.5t198 20t57.5 -8.5v-3q0 -32 -196 -129q-127 -46 -218 -76q-302 -70 -628.5 -100.5t-529.5 -30.5q-332 0 -458 82q-38 26 -49 52q-4 10 -4 17v8
q1 32 60 111q30 38 96 107q35 36 101 108q31 24 48 39q41 35 62.5 45t43 17.5t56 16.5t69.5 18t44.5 10.5t2.5 16.5q-52 55 -42 121q0 9 98 106q69 69 131 143q25 33 70.5 79t96.5 59q17 4 33 4q61 -4 90 -28t37 -49.5t1 -54t-29.5 -39t-62.5 7t-88 21t-77.5 -11t-45 -52
t3 -74.5t46 -51t61.5 -19.5t85.5 0.5t155 64t125.5 66q13 -24 -42 -78t-93 -77t-89 -57t-117.5 -73.5t-146.5 -75t-158 -60.5z" />
    <glyph glyph-name="glyph292" horiz-adv-x="2283" 
d="M652 611q-65 -20 -147 -37.5t-117 -33t-42 -42.5t10 -50q13 -14 34 -24q89 -43 391 -43t650 23t496.5 42.5t198 20t57.5 -8.5v-3q0 -32 -196 -129q-127 -46 -218 -76q-302 -70 -628.5 -100.5t-529.5 -30.5q-332 0 -458 82q-38 26 -49 52q-4 10 -4 17v8q1 32 60 111
q30 38 96 107q35 36 88.5 95t99 83t67 31.5t75 21.5t84.5 22t72 23t70 39.5t30 37.5q-13 52 -54 73q-11 0 -18 -12t-26 -24.5t-40 -12.5q-38 0 -65 15t-44 36t-25.5 44t-8.5 39q0 26 43 137l37 96q14 38 39.5 53t50.5 16q37 0 72 -30t62.5 -76.5t44 -103.5t16.5 -110
q0 -22 -3 -40.5t-9 -47t-24 -72.5q-20 -45 -51.5 -91t-76.5 -76.5t-110 -50.5z" />
    <glyph glyph-name="glyph293" horiz-adv-x="2283" 
d="M863.5 834q-27.5 -54 -60.5 -96.5t-73.5 -73.5t-84 -49t-133 -38.5t-124.5 -36t-42 -42.5t10 -50q13 -14 34 -24q89 -43 391 -43t650 23t496.5 42.5t198 20t57.5 -8.5v-3q0 -32 -196 -129q-127 -46 -218 -76q-302 -70 -628.5 -100.5t-529.5 -30.5q-332 0 -458 82
q-38 26 -49 52q-4 10 -4 17v8q1 32 60 111q30 38 96 107q35 36 74.5 80.5t77.5 73t59.5 38.5t43 17.5t100.5 29t110 35t45.5 40t32.5 289.5q27 163 86 278.5t111 160.5q66 68 459 315q343 241 345 241t2 -1v-1q-1 -3 -43 -74.5t-82 -112t-60 -58.5q-346 -252 -534 -376
q-50 -33 -83.5 -54.5t-51.5 -40.5q-12 -12 -18 -24h-1q-2 -5 -3 -10q-4 -20 -7 -97q1 -137 -13.5 -247t-42 -164z" />
    <glyph glyph-name="glyph294" horiz-adv-x="2283" 
d="M1553 2170v-2q-2 -23 -29.5 -58t-70 -74.5t-96.5 -78.5t-263 -173q-110 -75 -169 -96q34 90 255 229q61 39 111.5 73t94.5 64.5t84 59.5t80 60q3 -1 3 -4zM863.5 834q-27.5 -54 -60.5 -96.5t-73.5 -73.5t-84 -49t-133 -38.5t-124.5 -36t-42 -42.5t10 -50q13 -14 34 -24
q89 -43 391 -43t650 23t496.5 42.5t198 20t57.5 -8.5v-3q0 -32 -196 -129q-127 -46 -218 -76q-302 -70 -628.5 -100.5t-529.5 -30.5q-332 0 -458 82q-38 26 -49 52q-4 10 -4 17v8q1 32 60 111q30 38 96 107q35 36 74.5 80.5t77.5 73t59.5 38.5t43 17.5t100.5 29t110 35
t45.5 40t32.5 289.5q27 163 86 278.5t111 160.5q66 68 459 315q343 241 345 241t2 -1v-1q-1 -3 -43 -74.5t-82 -112t-60 -58.5q-346 -252 -534 -376q-50 -33 -83.5 -54.5t-51.5 -40.5q-12 -12 -18 -24h-1q-2 -5 -3 -10q-4 -20 -7 -97q1 -137 -13.5 -247t-42 -164z" />
    <glyph glyph-name="glyph295" horiz-adv-x="2283" 
d="M642 606q-36 -14 -127.5 -32t-126.5 -33.5t-42 -42.5t10 -50q13 -14 34 -24q89 -43 391 -43t650 23t496.5 42.5t198 20t57.5 -8.5v-3q0 -32 -196 -129q-127 -46 -218 -76q-302 -70 -628.5 -100.5t-529.5 -30.5q-332 0 -458 82q-38 26 -49 52q-4 10 -4 17v8q1 32 60 111
q30 38 96 107q35 36 101 108q31 24 48 39q41 35 62.5 45t43 17.5t80.5 23.5t81 22q21 6 70 24t62 47.5t19.5 78.5t9.5 100.5t4 89.5l3 157q18 69 60 198q35 98 49 133q4 16 12 15.5t8 -13.5q3 -31 -5 -123q-7 -339 -11 -390t-12 -95.5t-26 -97.5q-10 -32 -29 -64t-52.5 -74
t-72.5 -70.5t-66 -39.5t-53 -21z" />
    <glyph glyph-name="glyph296" horiz-adv-x="2283" 
d="M491 579q-68 -23 -103 -38.5t-42 -42.5t10 -50q13 -14 34 -24q89 -43 391 -43t650 23t496.5 42.5t198 20t57.5 -8.5v-3q0 -32 -196 -129q-127 -46 -218 -76q-302 -70 -628.5 -100.5t-529.5 -30.5q-332 0 -458 82q-38 26 -49 52q-4 10 -4 17v8q1 32 60 111q30 38 96 107
q35 36 101 108q31 24 48 39q41 35 116 65t118 44q86 25 78 37q-10 14 -19 34t16.5 70.5t98.5 146.5q33 50 46 49h2q50 -20 99 -48t81.5 -76.5t2.5 -97.5t-79 -87.5t-93.5 -63.5t-178.5 -69.5t-202 -67.5z" />
    <glyph glyph-name="glyph297" horiz-adv-x="2283" 
d="M534.5 541.5q-57.5 -10.5 -119.5 -23.5t-69 -30t10 -40q13 -14 34 -24q89 -43 391 -43t650 23t496.5 42.5t198 20t57.5 -8.5v-3q0 -32 -196 -129q-127 -46 -218 -76q-302 -70 -628.5 -100.5t-529.5 -30.5q-332 0 -458 82q-38 26 -49 52q-4 10 -4 17v8q1 32 60 111
q30 38 96 107q51 59 85.5 92t72 58t90 37.5t130 28t106.5 34t64.5 65t86.5 112.5t75 56h6q25 -1 75 -44q24 -21 39 -33h1q72 80 72 82q30 -13 42 -40q10 -29 10 -52v-5q0 -68 -49 -121q-42 -39 -106 -39t-112 50q-9 7 -31 36q-1 0 -3 1q-22 -11 -94 -100q-88 -100 -156 -131
t-125.5 -41.5z" />
    <glyph glyph-name="glyph298" horiz-adv-x="2283" 
d="M1086 922.5q-29 -41.5 -106 -148.5q157 46 254 102q26 15 34 24t1 38t-45 42t-73.5 -1.5t-64.5 -56zM711 762q20 6 65.5 24.5t108 51.5t111.5 78t55 62.5t-17 52.5t-68.5 43.5t-127.5 -120.5q-74 -118 -127 -192zM514.5 574q-91.5 -18 -126.5 -33.5t-42 -42.5t10 -50
q13 -14 34 -24q89 -43 391 -43t650 23t496.5 42.5t198 20t57.5 -8.5v-3q0 -32 -196 -129q-127 -46 -218 -76q-302 -70 -628.5 -100.5t-529.5 -30.5q-332 0 -458 82q-38 26 -49 52q-4 10 -4 17v8q1 32 60 111q30 38 96 107q35 36 101 108q31 24 48 39q41 35 62.5 45t43 17.5
t80.5 23.5q40 17 85 81t72 103.5t64.5 98.5t70 103t66 76t54.5 49.5t38 18.5q100 5 125 -133q0 -22 16 -23q49 24 94.5 23.5t67 -10t33 -27.5t16 -48.5t-8.5 -56.5t-35.5 -59.5t-53.5 -70.5t-66.5 -71t-73.5 -60.5t-107.5 -41.5t-118.5 -24t-186 -37t-228.5 -46z" />
    <glyph glyph-name="glyph299" horiz-adv-x="1059" 
d="M347 491q-8 -20 7 -38.5t36 -28.5q89 -43 391 -43t650 23t496.5 42.5t198 20t57.5 -8.5v-3q0 -32 -196 -129q-127 -46 -218 -76q-302 -70 -628.5 -100.5t-529.5 -30.5q-332 0 -458 82q-38 26 -49 52q-4 10 -4 17v8q1 32 60 111q30 38 96 107q35 36 101 108q71 54 122 66
t115 30.5t105.5 75t78 91t59.5 32.5t106 -80q25 -26 79 12q28 18 58 2t14.5 -47.5t-78 -92t-90.5 -59.5t-88.5 55t-75.5 55t-59 -61t-82.5 -86t-96 -42t-113.5 -31t-64 -33z" />
    <glyph glyph-name="glyph300" horiz-adv-x="805" 
d="M673 962q-12 -12 -23 -25q205 37 308 37q53 0 72.5 -8t8 -44.5t-33.5 -68t-92 -110t-129.5 -111.5t-97 -45t-140 -37.5t-145.5 -35.5t-52.5 -26.5t7.5 -39.5q13 -14 34 -24q89 -43 391 -43t650 23t496.5 42.5t198 20t57.5 -8.5v-3q0 -32 -196 -129q-127 -46 -218 -76
q-302 -70 -628.5 -100.5t-529.5 -30.5q-332 0 -458 82q-38 26 -49 52q-4 10 -4 17v8q1 32 60 111q30 38 96 107q35 36 73.5 72.5t92.5 69t171 62t186 48.5t89 34.5t21.5 24.5t-14 13.5t-40.5 6.5q-31 2 -74 1.5t-102 -7t-100 -14.5t-47 -6.5t16.5 49t50.5 89t73 92.5
t109 101t86 9q18 -36 -13 -65q-5 -5 -12 -10q-64 -40 -117 -79q-19 -14 -32 -25z" />
    <glyph glyph-name="glyph301" horiz-adv-x="1471" 
d="M1290 726q-88 -38 -155.5 -56t-113.5 -33t-69 -18q-35 -2 -69.5 51.5t-58 50t-67.5 -55.5q-32 -33 -57.5 -51.5t-44 -29t-57.5 -23.5q-37 -13 -112 -26q-73 -12 -109.5 -26.5t-37 -26t16.5 -34.5q13 -14 34 -24q89 -43 391 -43t650 23t496.5 42.5t198 20t57.5 -8.5v-3
q0 -32 -196 -129q-127 -46 -218 -76q-302 -70 -628.5 -100.5t-529.5 -30.5q-332 0 -458 82q-38 26 -49 52q-4 10 -4 17v8q1 32 60 111q30 38 96 107l59.5 59.5t46.5 45.5q38 32 62.5 43.5t40.5 14.5t43.5 9.5t115 25.5t141.5 75t76 75t48 29.5t55.5 -32t75.5 -56.5
q24 -8 42 3t56 66q40 37 52 26t9 -30t9.5 -26t30 -3.5t37.5 13.5t26 24.5t22.5 36t31 25.5t16.5 -16q-2 -17 3 -24q2 -2 4 -2q32 -11 56 4.5t43.5 28t37 -19t9.5 -49.5q-20 -28 -69 -60t-114 -45q-14 -1 -32 -11z" />
    <glyph glyph-name="glyph302" horiz-adv-x="1729" 
d="M1046 866q9 -1 17.5 -1.5t16.5 -0.5q50 0 103.5 14t100.5 36t91 60t49 64q-16 43 -68.5 59.5t-95.5 -7t-70 -55.5t-59 -72t-85 -97zM1309 1216q52 27 110.5 10.5t68 -89t-20.5 -138.5q-26 -63 -50 -108q-16 -29 -35 -61q-10 -15 -14 -26t32 0t119 49.5t169 100.5
q73 -59 40 -83t-93 -65t-149 -81.5t-183.5 -66t-177 -34t-116.5 -6.5t-69.5 12t-59.5 27.5t-39 36.5q-5 7 -15 8q-6 10 -45.5 -31.5t-84.5 -67t-153 -46.5t-149 -36.5t-48 -32.5t10 -40q13 -14 34 -24q89 -43 391 -43t650 23t496.5 42.5t198 20t57.5 -8.5v-3
q0 -32 -196 -129q-127 -46 -218 -76q-302 -70 -628.5 -100.5t-529.5 -30.5q-332 0 -458 82q-38 26 -49 52q-4 10 -4 17v8q1 32 60 111q30 38 96 107q50 51 100 97.5t89 68t60.5 29t110.5 20.5t122.5 32.5t58 49.5t66.5 76t62 47t21.5 -9.5t13.5 -21.5h1q12 -12 39 -16
q30 36 55.5 67t62.5 81.5t88 111.5q34 41 69 66q17 12 34 21z" />
    <glyph glyph-name="glyph303" horiz-adv-x="1447" 
d="M673 756q185 46 287.5 104.5t140.5 101.5q1 87 -70 96.5t-120.5 -23t-89 -76.5t-83.5 -105.5t-52.5 -76.5t-12.5 -21zM1417 970q40 10 57 -21.5t3 -44t-87 -68t-198 -106.5t-246 -79.5t-230.5 -43.5t-201 -33t-126.5 -33.5t-42 -42.5t10 -50q13 -14 34 -24
q89 -43 391 -43t650 23t496.5 42.5t198 20t57.5 -8.5v-3q0 -32 -196 -129q-127 -46 -218 -76q-302 -70 -628.5 -100.5t-529.5 -30.5q-332 0 -458 82q-38 26 -49 52q-4 10 -4 17v8q1 32 60 111q30 38 89.5 112.5t115 122.5t77 58t67.5 27t102 33q34 55 53.5 87t34.5 79
t23 137t9 161.5t1 143.5v140q16 69 53 200q32 99 44 134q4 16 12 16t8 -13q4 -31 0 -123q2 -322 0 -429q-4 -85 -8 -115t-18 -89q13 14 41 40t59 52t89 53.5t119 15t75.5 -94t-45.5 -178.5q-30 -59 -58 -102q-13 -21 -27 -47q-9 -18 61.5 9.5t94 36.5t88 45t97.5 69z" />
    <glyph glyph-name="glyph304" horiz-adv-x="1238" 
d="M1132.5 709q-50.5 -33 -93.5 -50t-82.5 -20t-96.5 54q-41 -26 -85 -49.5t-116 -45.5t-154 -37t-117 -30.5t-42 -37.5t10 -45q13 -14 34 -24q89 -43 391 -43t650 23t496.5 42.5t198 20t57.5 -8.5v-3q0 -32 -196 -129q-127 -46 -218 -76q-302 -70 -628.5 -100.5
t-529.5 -30.5q-332 0 -458 82q-38 26 -49 52q-4 10 -4 17v8q1 32 60 111q30 38 96 107q35 36 78 79t77.5 68t56 35t43 17.5t80.5 23.5t123 33t71.5 23.5t7.5 13.5q0 22 -22 59q-8 12 -22 26q-12 11 -20 14q-9 5 -30 5q-23 0 -44 -8q-8 -3 -23 -7q-12 0 -12 13q0 38 38 81
q19 20 29 28q29 23 51 33q83 45 174 45q79 0 117 -34q26 -25 26 -68q0 -27 -21.5 -76.5t-42.5 -87.5q9 -18 42 -18t89.5 27t84.5 50q27 16 44.5 -23t7.5 -47q-9 -7 -42.5 -33t-84 -59z" />
    <glyph glyph-name="glyph305" horiz-adv-x="1329" 
d="M759 920q1 -32 5 -41q9 -28 19 -42q25 -31 38 -31q0 -1 8 -1h1q41 0 138 59q27 18 62 49q15 16 15 29q0 60 -48 97q-15 13 -31 17q-25 6 -40 6q-77 0 -121 -47q-20 -20 -27 -34q-19 -32 -19 -61zM1042 791q59 15 117 42t101.5 54t56.5 38q22 7 42.5 -14.5t3.5 -60.5
q-53 -49 -135 -93t-160.5 -74t-132 -41.5t-85.5 -15t-98 4.5q-57 -20 -114 -36t-136 -27.5t-114 -27t-42 -42.5t10 -50q13 -14 34 -24q89 -43 391 -43t650 23t496.5 42.5t198 20t57.5 -8.5v-3q0 -32 -196 -129q-127 -46 -218 -76q-302 -70 -628.5 -100.5t-529.5 -30.5
q-332 0 -458 82q-38 26 -49 52q-4 10 -4 17v8q1 32 60 111q30 38 96 107q35 36 101 108q31 24 48 39q41 35 62.5 45t43 17.5t81 20t67.5 16.5t8 28q1 58 22 125q14 40 46 96q17 35 43 73q15 24 53 63q49 47 86 63q40 20 70 20h4q20 0 46 -13q38 -21 57 -72q11 -34 11 -66
v-34q0 -46 -31 -124q-22 -50 -47 -94l-6 -10q2 -9 10 -8q6 1 11 2z" />
    <glyph glyph-name="glyph306" horiz-adv-x="1078" 
d="M1479 2126q289 237 313 274q16 8 -17.5 -73.5t-74 -128.5t-59.5 -66q-328 -276 -441 -362.5t-145 -110.5t-45 -57.5t-19 -116t-17.5 -241.5t-5 -224t30.5 -110t47 -63q35 -30 80.5 -44t53.5 -12q13 -82 -7 -143t-60.5 -88.5t-77.5 -24.5q-26 5 -51 16.5t-58 50.5t-51 121
q-5 22 -9 63q-2 14 -5 15t-10 -13q-20 -40 -59 -81q-53 -56 -119.5 -85.5t-158 -47.5t-126.5 -33.5t-42 -42.5t10 -50q13 -14 34 -24q89 -43 391 -43t650 23t496.5 42.5t198 20t57.5 -8.5v-3q0 -32 -196 -129q-127 -46 -218 -76q-302 -70 -628.5 -100.5t-529.5 -30.5
q-332 0 -458 82q-38 26 -49 52q-4 10 -4 17v8q1 32 60 111q30 38 96 107q35 36 101 108q31 24 48 39q41 35 62.5 45t43 17.5t80.5 23.5t81 22q16 5 64.5 31t80.5 70t42.5 141t17.5 205.5t23 210t65 211t91 165t423 341.5z" />
    <glyph glyph-name="glyph307" horiz-adv-x="1078" 
d="M1479 2126q289 237 313 274q16 8 -17.5 -73.5t-74 -128.5t-59.5 -66q-328 -276 -441 -362.5t-145 -110.5t-45 -57.5t-19 -116t-17.5 -241.5t-5 -224t30.5 -110t47 -63q35 -30 80.5 -44t53.5 -12q13 -82 -7 -143t-60.5 -88.5t-77.5 -24.5q-26 5 -51 16.5t-58 50.5t-51 121
q-5 22 -9 63q-2 14 -5 15t-10 -13q-20 -40 -59 -81q-53 -56 -119.5 -85.5t-158 -47.5t-126.5 -33.5t-42 -42.5t10 -50q13 -14 34 -24q89 -43 391 -43t650 23t496.5 42.5t198 20t57.5 -8.5v-3q0 -32 -196 -129q-127 -46 -218 -76q-302 -70 -628.5 -100.5t-529.5 -30.5
q-332 0 -458 82q-38 26 -49 52q-4 10 -4 17v8q1 32 60 111q30 38 96 107q35 36 101 108q31 24 48 39q41 35 62.5 45t43 17.5t80.5 23.5t81 22q16 5 64.5 31t80.5 70t42.5 141t17.5 205.5t23 210t65 211t91 165t423 341.5zM1034 1945q-9 6 17.5 50.5t39.5 56.5
q104 92 221 176.5t178.5 132.5t87.5 72q17 19 22.5 19.5t3.5 -10.5t-22 -54.5t-82.5 -97.5t-184 -143t-197 -145t-84.5 -57z" />
    <glyph glyph-name="glyph308" horiz-adv-x="1078" 
d="M938.5 1556q19.5 53 34 86.5t19.5 11.5q6 -29 -0.5 -140t-18 -270t-5 -224t30.5 -110t47 -63q35 -30 80.5 -44t53.5 -12q13 -82 -7 -143t-60.5 -88.5t-77.5 -24.5q-26 5 -51 16.5t-58 50.5t-51 121q-5 22 -9 63q-2 14 -5 15t-10 -13q-20 -40 -59 -81
q-53 -56 -119.5 -85.5t-158 -47.5t-126.5 -33.5t-42 -42.5t10 -50q13 -14 34 -24q89 -43 391 -43t650 23t496.5 42.5t198 20t57.5 -8.5v-3q0 -32 -196 -129q-127 -46 -218 -76q-302 -70 -628.5 -100.5t-529.5 -30.5q-332 0 -458 82q-38 26 -49 52q-4 10 -4 17v8q1 32 60 111
q30 38 96 107q35 36 101 108q31 24 48 39q41 35 62.5 45t43 17.5t80.5 23.5t81 22q16 5 64.5 31t80.5 70t42.5 141t17.5 205.5t23 210.5q5 34 12 64t26.5 83z" />
    <glyph glyph-name="glyph309" horiz-adv-x="1048" 
d="M1008 923q-1 -8 31 -50.5t41.5 -63t9.5 -34.5q0 -30 -24.5 -67.5t-59.5 -71t-69.5 -51.5t-60.5 -18q-12 0 -23.5 14.5t-19 26t-37.5 27t-115.5 4.5t-167 -45.5t-125 -63t-46.5 -44t14 -38.5q13 -14 34 -24q89 -43 391 -43t650 23t496.5 42.5t198 20t57.5 -8.5v-3
q0 -32 -196 -129q-127 -46 -218 -76q-302 -70 -628.5 -100.5t-529.5 -30.5q-332 0 -458 82q-38 26 -49 52q-4 10 -4 17v8q1 32 60 111q30 38 77 99.5t124 128.5t211.5 130.5t256.5 91.5q52 74 94.5 121.5t87.5 81.5q23 4 43.5 -9t25.5 -56q-40 -25 -56.5 -35.5t-15.5 -18.5z
" />
    <glyph glyph-name="glyph310" horiz-adv-x="1198" 
d="M1249 812q-96 -85 -117 -125.5t-36 -73.5t-24.5 -58.5t-9.5 -26.5q-3 -9 -11 -28.5t-18.5 -39.5t-23.5 -36.5t-18.5 -5.5t3 46t18.5 71t17.5 67.5t7.5 48.5q-8 100 -75 119q-18 5 -41.5 4.5t-49.5 -16.5q-30 -19 -70 -60q-76 -76 -142.5 -104.5t-150.5 -39.5
t-122.5 -27.5t-42.5 -36t13 -42.5q13 -14 34 -24q89 -43 391 -43t650 23t496.5 42.5t198 20t57.5 -8.5v-3q0 -32 -196 -129q-127 -46 -218 -76q-302 -70 -628.5 -100.5t-529.5 -30.5q-332 0 -458 82q-38 26 -49 52q-4 10 -4 17v8q1 32 60 111q30 38 96 107q35 36 101 108
q31 24 48 39q41 35 62.5 45t43 17.5t95 16t108.5 18.5t82.5 55.5t65.5 69t54 54.5t81 37t73 -26.5t31 -97.5q4 -20 17 -15h2q18 8 73 63q30 1 46 -17.5t10 -50.5z" />
    <glyph glyph-name="glyph311" horiz-adv-x="1220" 
d="M975 882.5q7 17.5 1 34t-20.5 32t-40 21.5t-53 -6t-49 -32t-55.5 -57t-68 -88t-42.5 -57.5t51 8t101.5 28t84.5 35t63 43t27.5 39zM880 674q117 20 148.5 30.5t85.5 33.5q40 17 64 34q-23 63 -85.5 74t-107.5 -35t-105 -137zM1154 967l11 -1q64 2 86.5 -28t25.5 -52
t-3 -54t-49 -88t-82.5 -83t-93 -43.5t-148.5 -34.5q-88 -17 -196.5 -24t-185 -15.5t-115.5 -26.5q-58 -28 -61.5 -37t13.5 -32q13 -14 34 -24q89 -43 391 -43t650 23t496.5 42.5t198 20t57.5 -8.5v-3q0 -32 -196 -129q-127 -46 -218 -76q-302 -70 -628.5 -100.5
t-529.5 -30.5q-332 0 -458 82q-38 26 -49 52q-4 10 -4 17v8q1 32 60 111q30 38 96 107q46 55 113 104.5t123 73.5q29 13 68 25q10 13 29 36.5t91 116.5q86 112 107 135t53.5 55.5t68.5 51t60 18.5q48 0 72.5 -30.5t24.5 -80.5v-14q0 -5 12.5 9.5t26.5 30.5q23 29 69 71
q36 1 50 -17.5t15 -42.5q-60 -39 -85 -71z" />
    <glyph glyph-name="glyph312" horiz-adv-x="1143" 
d="M865 914q-9 -20 -23 -50q0 -17 97 -96q12 -4 72 -66q10 -15 22 -66q10 -49 10 -106q0 -216 -126 -431q-40 -62 -106 -139q-100 -102 -130 -121q-152 -120 -267 -120h-16q-157 0 -242 167q-56 116 -56 264v33q0 128 51 309q33 99 90 242q37 98 89 206q12 20 22 20
q8 0 10 -13v-4q0 -7 -25 -83q-21 -74 -79 -240q-44 -140 -44 -155q-14 -68 -14 -105q0 -158 87 -263q86 -94 182 -94h13q134 0 307 143q59 55 100 103q77 88 77 116v9q0 47 -96 109l-75 48q-75 70 -75 129q19 144 50.5 207.5t55 106t41.5 76.5t25 52q11 35 11 67
q0 40 -17.5 81.5t-46.5 74.5t-66.5 54t-77.5 21h-3q14 165 60 308q253 -69 253 -370q0 -175 -97 -350q-4 -7 -12 -22.5t-20 -34.5q-6 -9 -11 -17z" />
    <glyph glyph-name="glyph313" horiz-adv-x="1168" 
d="M869 923q-10 -21 -27 -59q0 -17 97 -96q12 -4 72 -66q10 -15 22 -66q10 -49 10 -106q0 -216 -126 -431q-40 -62 -106 -139q-100 -102 -130 -121q-152 -120 -267 -120h-16q-157 0 -242 167q-56 116 -56 264v33q0 128 51 309q33 99 90 242q37 98 89 206q12 20 22 20
q8 0 10 -13v-4q0 -7 -25 -83q-21 -74 -79 -240q-44 -140 -44 -155q-14 -68 -14 -105q0 -158 87 -263q86 -94 182 -94h13q134 0 307 143q59 55 100 103q77 88 77 116v9q0 47 -96 109l-75 48q-75 70 -75 129q20 151 75.5 264t60.5 191.5t5 229.5v140q27 163 84.5 291.5
t109.5 173.5q66 68 466 327q343 241 345 241t2 -1v-1q-1 -3 -43 -74.5t-82 -112t-60 -58.5q-346 -252 -534 -376q-50 -33 -83.5 -54.5t-51.5 -40.5q-12 -12 -18 -24h-1q-2 -5 -3 -10q-4 -20 -7 -97q2 -352 -0.5 -403.5t-14.5 -116.5t-44 -134z" />
    <glyph glyph-name="glyph314" horiz-adv-x="1168" 
d="M1653 2602v-2q-2 -23 -29.5 -58t-70 -74.5t-96.5 -78.5t-263 -173q-110 -75 -169 -96q34 90 255 229q61 39 111.5 73t94.5 64.5t84 59.5t80 60q3 -1 3 -4zM869 923q-10 -21 -27 -59q0 -17 97 -96q12 -4 72 -66q10 -15 22 -66q10 -49 10 -106q0 -216 -126 -431
q-40 -62 -106 -139q-100 -102 -130 -121q-152 -120 -267 -120h-16q-157 0 -242 167q-56 116 -56 264v33q0 128 51 309q33 99 90 242q37 98 89 206q12 20 22 20q8 0 10 -13v-4q0 -7 -25 -83q-21 -74 -79 -240q-44 -140 -44 -155q-14 -68 -14 -105q0 -158 87 -263
q86 -94 182 -94h13q134 0 307 143q59 55 100 103q77 88 77 116v9q0 47 -96 109l-75 48q-75 70 -75 129q20 151 75.5 264t60.5 191.5t5 229.5v140q27 163 84.5 291.5t109.5 173.5q66 68 466 327q343 241 345 241t2 -1v-1q-1 -3 -43 -74.5t-82 -112t-60 -58.5
q-346 -252 -534 -376q-50 -33 -83.5 -54.5t-51.5 -40.5q-12 -12 -18 -24h-1q-2 -5 -3 -10q-4 -20 -7 -97q2 -352 -0.5 -403.5t-14.5 -116.5t-44 -134z" />
    <glyph glyph-name="glyph315" horiz-adv-x="1143" 
d="M908 988q-4 -7 -12 -22.5t-20 -34.5q-6 -9 -11 -17q-9 -20 -23 -50q0 -17 97 -96q12 -4 72 -66q10 -15 22 -66q10 -49 10 -106q0 -216 -126 -431q-40 -62 -106 -139q-100 -102 -130 -121q-152 -120 -267 -120h-16q-157 0 -242 167q-56 116 -56 264v33q0 128 51 309
q33 99 90 242q37 98 89 206q12 20 22 20q8 0 10 -13v-4q0 -7 -25 -83q-21 -74 -79 -240q-44 -140 -44 -155q-14 -68 -14 -105q0 -158 87 -263q86 -94 182 -94h13q134 0 307 143q59 55 100 103q77 88 77 116v9q0 47 -96 109l-75 48q-75 70 -75 129q19 144 50.5 207.5t55 106
t41.5 76.5t25 52q11 35 11 67q0 40 -14 72q-8 18 -18 25.5t-16 -3.5q-20 -15 -34 -21t-35 -6q-38 0 -65 15t-44 36t-25.5 44t-8.5 39q0 26 43 137l37 96q14 38 39.5 53t50.5 16q37 0 72 -30t63 -76q12 -22 23 -46l2 2q13 -32 21 -68q14 -53 14 -102q0 -22 -3.5 -64
t-17.5 -103q-24 -98 -79 -197z" />
    </font>
</defs>
</svg>
